Торрент файл
скачать торрент магнет ссылка Добавлен: 10 янв 2012, 20:01
Размер: 2.3 ГБ
Сидеров: 220
Личеров: 17
Автор

СообщениеДобавлено: 10 янв 2012, 20:01 

Не в сети
Супермодератор
Аватара пользователя
Дата регистрации:
11 апр 2010, 18:10
Спасибо: 5802 / 7
Сообщения: 56779
Повелитель бури / The Hurt Locker


Перевод: Профессиональный (многоголосый, закадровый)
Cубтитры:отсутствуют
Формат: HDRip, MKV, H.264, AC3
Страна: США
Режиссер: Кэтрин Бигилоу
Жанр: Боевик, триллер, драма, военный
Продолжительность: 02:10:45
Год выпуска: 2010

В ролях: Джереми Реннер, Энтони Маки, Брайан Джерати, Гай Пирс, Рэйф Файнс, Дэвид Морс, Кристиан Камарго, Сухейл Алдаббач

Описание: Члены элитного отряда по разминированию бомб направлены в один из иракских городов, где практически любой предмет представляет смертельную опасность.



Видео: 1280х720 (16:9), 23,976 fps, MPEG4 AVC (x264) , ~2 067 Kbps avg, 0.094 bits/pixel
Аудио: Русский: 48.0 kHz, AC3, 6 ch, ~448 kbps avg [Профессиональный (многоголосный закадровый)]

Доп.информация: Релиз группа|Автор рипа:

Слоган: «Война - это наркотик»

Общее
Уникальный идентификатор: 248342635476979404848365424978291551773 (0xBAD50D43A3311616A6D9AC5989DF6E1D)
Полное имя: E:\Фильмы\hurt_locker_[tfile.ru].mkv
Формат: Matroska
Размер файла: 2,30 Гбайт
Продолжительность: 2 ч. 10 м.
Общий поток: 2515 Кбит/сек
Название фильма: Rip by victordan 95
Дата кодирования: UTC 2011-04-14 13:50:57
Программа кодирования: mkvmerge v3.2.0 ('Beginnings') built on Feb 12 2010 16:46:17
Библиотека кодирования: libebml v0.7.9 + libmatroska v0.8.1

Видео
Идентификатор: 1
Формат: AVC
Формат/Информация: Advanced Video Codec
Профиль формата:
Параметр CABAC формата: Да
Параметр ReFrames формата: 5 кадров
Идентификатор кодека: V_MPEG4/ISO/AVC
Продолжительность: 2 ч. 10 м.
Вид битрейта: Переменный
Битрейт: 2067 Кбит/сек
Максимальный битрейт: 15,0 Мбит/сек
Ширина: 1280 пикс.
Высота: 720 пикс.
Соотношение сторон: 16:9
Частота кадров: 23,976 кадр/сек
Цветовое пространство: YUV
Подвыборка цветности: 4:2:0
Битовая глубина: 8 бит
Тип развёртки: Прогрессивная
Бит/(Пиксели*Кадры): 0.094
Размер потока: 1,84 Гбайт (80%)
Библиотека кодирования: x264 core 114 r1913 5fd3dce
Настройки программы: cabac=1 / ref=6 / deblock=1:0:0 / analyse=0x3:0x113 / me=umh / subme=8 / psy=1 / psy_rd=1.00:0.00 / mixed_ref=1 / me_range=16 / chroma_me=1 / trellis=1 / 8x8dct=1 / cqm=0 / deadzone=21,11 / fast_pskip=1 / chroma_qp_offset=-2 / threads=3 / sliced_threads=0 / slices=4 / nr=0 / decimate=1 / interlaced=0 / constrained_intra=0 / bframes=3 / b_pyramid=1 / b_adapt=1 / b_bias=0 / direct=3 / weightb=1 / open_gop=0 / weightp=1 / keyint=24 / keyint_min=1 / scenecut=40 / intra_refresh=0 / rc_lookahead=24 / rc=2pass / mbtree=1 / bitrate=2067 / ratetol=1.0 / qcomp=0.60 / qpmin=0 / qpmax=69 / qpstep=4 / cplxblur=20.0 / qblur=0.5 / vbv_maxrate=15000 / vbv_bufsize=15000 / nal_hrd=vbr / ip_ratio=1.10 / aq=1:1.00
Язык: English

Аудио
Идентификатор: 2
Формат: AC-3
Формат/Информация: Audio Coding 3
Расширение режима: CM (complete main)
Идентификатор кодека: A_AC3
Продолжительность: 2 ч. 10 м.
Вид битрейта: Постоянный
Битрейт: 448 Кбит/сек
Каналы: 6 каналов
Расположение каналов: Front: L C R, Side: L R, LFE
Частота: 48,0 КГц
Битовая глубина: 16 бит
Метод сжатия: С потерями
Размер потока: 419 Мбайт (18%)
Заголовок: R5 MVO
Язык: Russian





* Часть фильма снималась во время мусульманского месяца Рамазан. Немусульманские члены съемочной группы жили и питались в палатках и специальных закрытых навесах с окнами, завешанными коврами (из уважения к традициям и согласно Иорданским законам ). Курение, прием пищи и напитков в общественных местах во время Рамазана запрещено в Иордании, а также во многих ближневосточных странах, и в качестве наказания людей, нарушивших закон, сажают в тюрьму.
* Первую неделю съемок (летом в Иордании) стояла страшная жара. Было так жарко, что оператор, Бэрри Экройд, получил тепловой удар.
* В съемках использовались любительские 16-миллиметровые камеры, чтобы придать фильму дополнительный эффект документальности. Этими камерами было отснято почти 200 часов материала.
* Персонаж Брайана Джерати – специалист Элдридж. Специалист – старшее воинское звание рядового в Армии США. Оно эквивалентно капралу, но в отличие от него специалисты не считаются военнослужащими сержантского состава.



Поделиться:




реклама партнёра


Вернуться к началу
 Профиль Отправить личное сообщение  
 
   Похожие торренты   Автор   Торрент   Размер 
В этой теме нет новых непрочитанных сообщений. Зажги меня / Плюш / Plush (Кэтрин Хардвик) [Триллер, драма, 2013] HDRip, Mvo

Dracon

282 | 12

1.46 ГБ

В этой теме нет новых непрочитанных сообщений. Военные игры / War Games: At the End of the Day [триллер, ужасы, боевик, 2011] HDRip, Mvo [Лицензия]

salma3

29 | 12

1.46 ГБ

В этой теме нет новых непрочитанных сообщений. Уцелевший / Lone Survivor [боевик, триллер, драма, военный, 2013] HDRip, Dub [Лицензия]

Dracon

242 | 5

2.05 ГБ

В этой теме нет новых непрочитанных сообщений. Мадрас-кафе / Madras Cafe [боевик, триллер, драма, военный, история, 2013] HDRip, Mvo+Sub

salma3

8 | 3

2.17 ГБ

В этой теме нет новых непрочитанных сообщений. Кафе «Мадрас» / Madras Cafe [Боевик, триллер, драма, военный, 2013] HDRip, Mvo [SDI Media]

salma3

108 | 32

1.46 ГБ

В этой теме нет новых непрочитанных сообщений. Военные потери / Casualties of War [Драма, приключения, военный, 1989] BDRemux 1080p, Dvo+Avo+Sub

salma3

2 | 3

26.02 ГБ

В этой теме нет новых непрочитанных сообщений. Военные потери / Casualties of War [Драма, приключения, военный, 1989] BDRip 1080p, Dvo+Avo+Sub

salma3

23 | 4

7.91 ГБ


Начать новую тему Ответить на тему  [ 1 сообщение ] 




Для Мосгорсуда, Роскомнадзора и рекламодателей:: mosgorsud-torrent[собачка]yandex.ru