Торрент файл
скачать торрент магнет ссылка Добавлен: 10 янв 2012, 20:01
Размер: 2.16 ГБ
Сидеров: 45
Личеров: 11
Автор

СообщениеДобавлено: 10 янв 2012, 20:01 

Не в сети
Супермодератор
Аватара пользователя
Дата регистрации:
11 апр 2010, 18:10
Спасибо: 5802 / 7
Сообщения: 56779
Слезы солнца / Tears Of The Sun



Перевод: Профессиональный (полное дублирование)
Субтитры:отсутствуют
Формат: HDRip-AVC, MKV, H.264, AC3
Страна: США
Режиссер: Антуан Фукуа
Жанр: Боевик
Продолжительность: 02:00:55
Год выпуска: 2003

В ролях: Брюс Уиллис, Моника Беллуччи, Коул Хаузер, Имонн Уолкер, Джонни Месснер, Ник Чинланд, Чарльз Ингрэм, Пол Френсис, Чад Смит, Том Скерритт

Описание: Команда по выполнению спецопераций особой сложности послана в джунгли, в самое сердце Нигерии. Задача отважных ребят — разыскать и освободить из плена врача.Когда они находят несчастную женщину в забытой богом деревеньке, выясняется, что характер операции надо срочно менять: врач заявляет, что покинет джунгли, только если вместе с ней спецбригада прихватит еще 70 человек беженцев.



Видео: 1280х528 (2.40:1), 23.976 fps, MPEG4 AVC (x264) , ~2 139 Kbps avg, 0.127 bits/pixel
Аудио: 48.0 kHz, AC3, 6 ch, ~448 kbps avg

Доп. информация:

    Релиз Группа | Автор Рипа:
    Бюджет Фильма: $75 000 000 + маркетинг $35 000 000
    Кассовые сборы: $86 468 162


СЛОГАН: «Его учили выполнять приказ. Но он стал героем, нарушив его.»


Уникальный идентификатор: 187196932794722318160547860686237878461 (0x8CD4D15DBEA25CAB8C7730B800DC48BD)
Полное имя: E:\Фильмы\tears_of_the_su_[tfile.ru].mkv
Формат: Matroska
Размер файла: 2,16 Гбайт
Продолжительность: 2 ч. 0 м.
Общий поток: 2563 Кбит/сек
Название фильма: Rip by Romeo [NOLIMITS-TEAM.RU]
Дата кодирования: UTC 2010-10-12 19:57:54
Программа кодирования: mkvmerge v3.0.0 ('Hang up your Hang-Ups') built on Dec 12 2009 15:20:35
Библиотека кодирования: libebml v0.7.9 + libmatroska v0.8.1

Видео
Идентификатор: 1
Формат: AVC
Формат/Информация: Advanced Video Codec
Профиль формата:
Параметр CABAC формата: Да
Параметр ReFrames формата: 3 кадра
Идентификатор кодека: V_MPEG4/ISO/AVC
Продолжительность: 2 ч. 0 м.
Вид битрейта: Переменный
Битрейт: 2139 Кбит/сек
Максимальный битрейт: 17,5 Мбит/сек
Ширина: 1280 пикс.
Высота: 528 пикс.
Соотношение сторон: 2,40:1
Соотношение сторон в оригинале: 2,40:1
Частота кадров: 23,976 кадр/сек
Цветовое пространство: YUV
Подвыборка цветности: 4:2:0
Битовая глубина: 8 бит
Тип развёртки: Прогрессивная
Бит/(Пиксели*Кадры): 0.132
Размер потока: 1,74 Гбайт (81%)
Заголовок: Слезы солнца.[nolimits-team.ru]
Библиотека кодирования: x264 core 104 r1713 c276662
Настройки программы: cabac=1 / ref=1 / deblock=1:0:0 / analyse=0x3:0x3 / me=dia / subme=1 / psy=1 / psy_rd=0.00:0.00 / mixed_ref=0 / me_range=16 / chroma_me=1 / trellis=0 / 8x8dct=1 / cqm=0 / deadzone=21,11 / fast_pskip=1 / chroma_qp_offset=0 / threads=6 / sliced_threads=0 / slices=4 / nr=0 / decimate=1 / interlaced=0 / constrained_intra=0 / bframes=3 / b_pyramid=1 / b_adapt=1 / b_bias=0 / direct=1 / weightb=1 / open_gop=0 / weightp=0 / keyint=24 / keyint_min=1 / scenecut=40 / intra_refresh=0 / rc_lookahead=0 / rc=abr / mbtree=0 / bitrate=2139 / ratetol=1.0 / qcomp=0.60 / qpmin=0 / qpmax=51 / qpstep=4 / vbv_maxrate=17500 / vbv_bufsize=14500 / ip_ratio=1.10 / pb_ratio=1.10 / aq=1:1.00 / nal_hrd=vbr
Язык: English

Аудио
Идентификатор: 2
Формат: AC-3
Формат/Информация: Audio Coding 3
Расширение режима: CM (complete main)
Идентификатор кодека: A_AC3
Продолжительность: 2 ч. 0 м.
Вид битрейта: Постоянный
Битрейт: 448 Кбит/сек
Каналы: 6 каналов
Расположение каналов: Front: L C R, Side: L R, LFE
Частота: 48,0 КГц
Битовая глубина: 16 бит
Метод сжатия: С потерями
Размер потока: 387 Мбайт (17%)
Заголовок: Профессиональный (полное дублирование)
Язык: Russian







Поделиться:




реклама партнёра


Вернуться к началу
 Профиль Отправить личное сообщение  
 
   Похожие торренты   Автор   Торрент   Размер 
В этой теме нет новых непрочитанных сообщений. Слезы солнца / Tears of the Sun [боевик, триллер, драма, военный, 2003] BDRip 720p, Dub

salma3

71 | 22

7.84 ГБ

В этой теме нет новых непрочитанных сообщений. Левша / Southpaw (Антуан Фукуа) [Драма, спорт, боевик, триллер, 2015] HDRip, Dub [iTunes]

Dracon

259 | 4

2.05 ГБ

В этой теме нет новых непрочитанных сообщений. Левша / Southpaw (Антуан Фукуа) [Драма, спорт, боевик, триллер, 2015] HDRip, Dub [iTunes]

Dracon

1787 | 113

1.37 ГБ

В этой теме нет новых непрочитанных сообщений. Левша / Southpaw (Антуан Фукуа) [Драма, спорт, боевик, триллер, 2015] WEB-DLRip-AVC, Dub [iTunes]

Dracon

4021 | 271

2.16 ГБ

В этой теме нет новых непрочитанных сообщений. Левша / Southpaw (Антуан Фукуа) [2015, Драма, спорт, боевик, триллер, BDRip-AVC | Чадов] avo

Dracon

161 | 14

2.42 ГБ

В этой теме нет новых непрочитанных сообщений. Великий уравнитель / The Equalizer (Антуан Фукуа) [2014, Боевик, триллер, криминал, ВDRip-AVC1080p] [Dub] [ Лицензия]

Враг Нароода

23 | 3

7.21 ГБ

В этой теме нет новых непрочитанных сообщений. Левша / Southpaw (Антуан Фукуа) [Драма, спорт, боевик, триллер, 2015] BDRip 720p, Dub [iTunes]

Dracon

217 | 25

5.8 ГБ


Начать новую тему Ответить на тему  [ 1 сообщение ] 




Для Мосгорсуда, Роскомнадзора и рекламодателей:: mosgorsud-torrent[собачка]yandex.ru