Торрент файл
скачать торрент магнет ссылка Добавлен: 10 янв 2012, 20:00
Размер: 2.85 ГБ
Сидеров: 7
Личеров: 7
Автор

СообщениеДобавлено: 10 янв 2012, 20:00 

Не в сети
Супермодератор
Аватара пользователя
Дата регистрации:
11 апр 2010, 18:10
Спасибо: 5803 / 7
Сообщения: 56779
Геттисбург / Gettysburg


Перевод: Профессиональный (многоголосый, закадровый)
Субтитры: Русские (форсированные, отключаемые), Английские (полные, отключаемые), Немецкие (полные, отключаемые)
Формат: HDRip-AVC, MKV, H.264, AC3
Страна: США
Режиссер: Рональд Ф. Максвелл
Жанр: военный, история, драма
Продолжительность: 04:31:14
Год выпуска: 1993
В ролях: Том Беренджер, Мартин Шин, Стивен Лэнг, Джефф Дэниелс, Ричард Джордан, Эндрю Прайн, Купер Хукаби, Патрик Горман, Бо Бринкман, Джеймс Ланкастер
Описание: Осень 1863 года. Армия конфедератов продвигается к северу Пенсильвании. Впереди их ожидают вражеские дивизии. Две великие армии встретятся в Геттисбурге. Три долгих дня судьба будущей неделимой нации будет висеть на волоске…

Видео: 1024x576 (16:9), 23,976 fps,MPEG4 AVC (х264), ~1281 kbps avg, 0.091 bit/pixel
Аудио: 48 kHz, AC-3, 2 ch, ~192.00 kbps avg
Доп. информация: Режиссерская версия

Общее
Уникальный идентификатор : 193336998162890580471426564825768592629 (0x917359F622C76AA68FD0CF5A571904F5)
Полное имя : f:\Downloads\gettysburg_[tfile.ru].mkv
Формат : Matroska
Размер файла : 2,85 Гбайт
Продолжительность : 4 ч. 31 м.
Общий поток : 1503 Кбит/сек
Дата кодирования : UTC 2011-06-13 18:16:59
Программа кодирования : mkvmerge v4.6.0 ('Still Crazy After All These Years') сборка от Mar 10 2011 02:50:32
Библиотека кодирования : libebml v1.2.0 + libmatroska v1.1.0

Видео
Идентификатор : 1
Формат : AVC
Формат/Информация : Advanced Video Codec
Профиль формата :
Параметр CABAC формата : Да
Параметр ReFrames формата : 1 кадр
Параметры GOP формата : M=1, N=12
Режим смешивания : Header stripping
Идентификатор кодека : V_MPEG4/ISO/AVC
Продолжительность : 4 ч. 31 м.
Битрейт : 1281 Кбит/сек
Ширина : 1024 пикс.
Высота : 576 пикс.
Соотношение сторон : 16:9
Частота кадров : 23,976 кадр/сек
Цветовое пространство : YUV
Подвыборка цветности : 4:2:0
Битовая глубина : 8 бит
Тип развёртки : Прогрессивная
Бит/(Пиксели*Кадры) : 0.091
Размер потока : 2,43 Гбайт (85%)

Аудио
Идентификатор : 2
Формат : AC-3
Формат/Информация : Audio Coding 3
Расширение режима : CM (complete main)
Режим смешивания : Header stripping
Идентификатор кодека : A_AC3
Продолжительность : 4 ч. 31 м.
Вид битрейта : Постоянный
Битрейт : 192 Кбит/сек
Канал(ы) : 2 канала(ов)
Расположение каналов : Front: L R
Частота : 48,0 КГц
Битовая глубина : 16 бит
Метод сжатия : С потерями
Размер потока : 372 Мбайт (13%)
Язык : Russian

Текст #1
Идентификатор : 3
Формат : UTF-8
Идентификатор кодека : S_TEXT/UTF8
Идентификатор кодека/Информация : UTF-8 Plain Text
Язык : Russian

Текст #2
Идентификатор : 4
Формат : VobSub
Режим смешивания : zlib
Идентификатор кодека : S_VOBSUB
Идентификатор кодека/Информация : The same subtitle format used on DVDs
Язык : English

Текст #3
Идентификатор : 5
Формат : VobSub
Режим смешивания : zlib
Идентификатор кодека : S_VOBSUB
Идентификатор кодека/Информация : The same subtitle format used on DVDs
Язык : German
















Поделиться:




реклама партнёра


Вернуться к началу
 Профиль Отправить личное сообщение  
 
   Похожие торренты   Автор   Торрент   Размер 
В этой теме нет новых непрочитанных сообщений. Император / Emperor [драма, военный, история, 2012] HDRip, Mvo

Dracon

737 | 12

1.36 ГБ

В этой теме нет новых непрочитанных сообщений. Кочевник  / Nomad The Warrior [драма, военный, история, 2005] HDRip, Dub

salma3

1 | 2

1.47 ГБ

В этой теме нет новых непрочитанных сообщений. Колетт / Colette [драма, мелодрама, военный, история, 2013] HDRip, avo

Dracon

221 | 13

2.19 ГБ

В этой теме нет новых непрочитанных сообщений. Мадрас-кафе / Madras Cafe [боевик, триллер, драма, военный, история, 2013] HDRip, Mvo+Sub

salma3

8 | 3

2.17 ГБ

В этой теме нет новых непрочитанных сообщений. Военные потери / Casualties of War [Драма, приключения, военный, 1989] BDRemux 1080p, Dvo+Avo+Sub

salma3

2 | 3

26.02 ГБ

В этой теме нет новых непрочитанных сообщений. Военные потери / Casualties of War [Драма, приключения, военный, 1989] BDRip 1080p, Dvo+Avo+Sub

salma3

23 | 4

7.91 ГБ

В этой теме нет новых непрочитанных сообщений. Битва за тяжёлую воду / Kampen om tungtvannet [S01] (Пер-Олав Соренсен ) [драма, военный, история, 2015] HDRip, Avo

Dracon

1566 | 218

4.07 ГБ


Начать новую тему Ответить на тему  [ 1 сообщение ] 




Для Мосгорсуда, Роскомнадзора и рекламодателей:: mosgorsud-torrent[собачка]yandex.ru