Торрент файл
скачать торрент магнет ссылка Добавлен: 10 янв 2012, 19:59
Размер: 2.89 ГБ
Сидеров: 103
Личеров: 13
Автор

СообщениеДобавлено: 10 янв 2012, 19:59 

Не в сети
Супермодератор
Аватара пользователя
Дата регистрации:
11 апр 2010, 18:10
Спасибо: 5802 / 7
Сообщения: 56779
Боги и генералы / Gods and Generals


Перевод: Профессиональный (многоголосый, закадровый)
Субтитры:Английские (полные, отключаемые), Испанские (полные, отключаемые), Португальские (полные, отключаемые), Болгарские (полные, отключаемые)
Формат: HDRip-AVC, MKV, H.264, AC3
Страна: США
Режиссер: Рональд Ф. Максвелл
Жанр: военный, история, драма
Продолжительность: 03:38:54
Год выпуска: 2003
В ролях: Донзали Эбернэти, Марк Олдрич, Джордж Аллен, Кейт Эллисон, Ройс Д. Эпплгейт, Брюс Бокслайтнер, Бо Бринкман, Мак Батлер, Роберт Бёрд, Шэйн Каллахан
Описание: Широкое эпическое полотно о начале Гражданской войны между Севером и Югом, рассказ о сражениях при Манассасе, Антиэтеме, Фредериксберге и Чанселлорсвилле. Основное действие разворачивается вокруг армии конфедератов и её генерала Джексона, удостоившегося прозвища Каменная Стена…

Видео: 1280x536 (2,35:1), 23,976 fps, MPEG4 AVC (х264), ~1663 kbps avg, 0.101 bit/pixel
Аудио: 48 kHz, AC-3, 2 ch, ~192.00 kbps avg

Автор РИПа:
Общее
Уникальный идентификатор : 217460476709979284958043956044503082583 (0xA3995D481D9A12C08785491DBF0E6657)
Полное имя : f:\Downloads\gods_and_generalse_[tfile.ru].mkv
Формат : Matroska
Размер файла : 2,89 Гбайт
Продолжительность : 3 ч. 38 м.
Общий поток : 1893 Кбит/сек
Дата кодирования : UTC 2011-06-18 12:50:52
Программа кодирования : mkvmerge v4.6.0 ('Still Crazy After All These Years') сборка от Mar 10 2011 02:50:32
Библиотека кодирования : libebml v1.2.0 + libmatroska v1.1.0

Видео
Идентификатор : 1
Формат : AVC
Формат/Информация : Advanced Video Codec
Профиль формата :
Параметр CABAC формата : Да
Параметр ReFrames формата : 1 кадр
Параметры GOP формата : M=1, N=12
Режим смешивания : Header stripping
Идентификатор кодека : V_MPEG4/ISO/AVC
Продолжительность : 3 ч. 38 м.
Битрейт : 1663 Кбит/сек
Ширина : 1280 пикс.
Высота : 536 пикс.
Соотношение сторон : 2,35:1
Частота кадров : 23,976 кадр/сек
Цветовое пространство : YUV
Подвыборка цветности : 4:2:0
Битовая глубина : 8 бит
Тип развёртки : Прогрессивная
Бит/(Пиксели*Кадры) : 0.101
Размер потока : 2,54 Гбайт (88%)

Аудио
Идентификатор : 2
Формат : AC-3
Формат/Информация : Audio Coding 3
Расширение режима : CM (complete main)
Режим смешивания : Header stripping
Идентификатор кодека : A_AC3
Продолжительность : 3 ч. 38 м.
Вид битрейта : Постоянный
Битрейт : 192 Кбит/сек
Канал(ы) : 2 канала(ов)
Расположение каналов : Front: L R
Частота : 48,0 КГц
Битовая глубина : 16 бит
Метод сжатия : С потерями
Размер потока : 301 Мбайт (10%)
Язык : Russian

Текст #1
Идентификатор : 3
Формат : UTF-8
Идентификатор кодека : S_TEXT/UTF8
Идентификатор кодека/Информация : UTF-8 Plain Text
Язык : English

Текст #2
Идентификатор : 4
Формат : UTF-8
Идентификатор кодека : S_TEXT/UTF8
Идентификатор кодека/Информация : UTF-8 Plain Text
Язык : Spanish

Текст #3
Идентификатор : 5
Формат : UTF-8
Идентификатор кодека : S_TEXT/UTF8
Идентификатор кодека/Информация : UTF-8 Plain Text
Язык : Portuguese

Текст #4
Идентификатор : 6
Формат : UTF-8
Идентификатор кодека : S_TEXT/UTF8
Идентификатор кодека/Информация : UTF-8 Plain Text
Язык : Bulgarian












Поделиться:




реклама партнёра


Вернуться к началу
 Профиль Отправить личное сообщение  
 
   Похожие торренты   Автор   Торрент   Размер 
В этой теме нет новых непрочитанных сообщений. Боги и Генералы / Gods and Generals [Драма, военный, история, экранизация, 2003] BDRip 720p, Mvo+Dvo+Sub

salma3

65 | 24

9.59 ГБ

В этой теме нет новых непрочитанных сообщений. Исход: Цари и боги / Exodus: Gods and Kings (Ридли Скотт) [боевик, драма, приключения, 2014] HDRip, Dub [iTunes]

Dracon

167 | 7

2.74 ГБ

В этой теме нет новых непрочитанных сообщений. Исход: Цари и боги / Exodus: Gods and Kings (Ридли Скотт) [боевик, драма, приключения, 2014] HDRip, Dub [iTunes]

Dracon

223 | 8

2.05 ГБ

В этой теме нет новых непрочитанных сообщений. Исход: Цари и боги / Exodus: Gods and Kings (Ридли Скотт) [боевик, драма, приключения, 2014] HDRip, Dub [iTunes]

Dracon

364 | 5

1.37 ГБ

В этой теме нет новых непрочитанных сообщений. Боги и монстры / Gods and Monsters [Драма, биография, 1998] WEB-DLRip, Mvo

salma3

31 | 1

1.46 ГБ

В этой теме нет новых непрочитанных сообщений. Исход: Цари и боги / Exodus: Gods and Kings (Ридли Скотт) [боевик, драма, приключения, 2014] BDRip-AVC, Dub+Sub [Лицензия]

Dracon

361 | 19

4.04 ГБ

В этой теме нет новых непрочитанных сообщений. Исход: Цари и боги / Exodus: Gods and Kings (Ридли Скотт) [боевик, драма, приключения, 2014] WEB-DLRip-AVC, Dub [iTunes]

Dracon

660 | 8

3.29 ГБ


Начать новую тему Ответить на тему  [ 1 сообщение ] 




Для Мосгорсуда, Роскомнадзора и рекламодателей:: mosgorsud-torrent[собачка]yandex.ru