Торрент файл
скачать торрент магнет ссылка Добавлен: 10 янв 2012, 19:58
Размер: 1.79 ГБ
Сидеров: 25
Личеров: 8
Автор

СообщениеДобавлено: 10 янв 2012, 19:58 

Не в сети
Супермодератор
Аватара пользователя
Дата регистрации:
11 апр 2010, 18:10
Спасибо: 5960 / 7
Сообщения: 56765
Эпоха героев / Age of Heroes


Перевод: Любительский (двухголосый), cубтитры: английские
Формат: HDRip-AVC, MKV, H.264, AC3
Страна: Великобритания
Режиссер: Эдриан Виториа
Жанр: военный
Продолжительность: 01:33:34
Год выпуска: 2011

В ролях: Шон Бин,Изабелла Мико, Дэнни Дайер, Джеймс Д’Арси, Себастьян Стрит, Аксель Хенни, Уильям Хьюстон, Рози Феллнер, Дэниэл Броклбэнки

Описание: Фильм основан на реальных событиях и рассказывает о знаменитом английском отряде «30 Assault Unit», известном также под названием «30 Commando». Отряд был сформирован во время Второй мировой по инициативе Яна Флеминга, служившего тогда в британской военно-морской разведке, и действовал на оккупированной нацистами территории. Его задачей была добыча немецкой секретной документации и различных технических устройств.



Видео: 1280 x 544 (2.35:1), 24.000 fps, AVC, х264, , ~ 1926 Kbps, 0.115 bit/pixel

Аудио #1:Русский:48 kHz, AC3, 6 ch.,~640 kbps Любительский (двухголосый)

Аудио #2: Английский:48 kHz, AC3, 2 ch.,~128 kbps [Оригинал]

Релиз группа: FireBit



General
Unique ID: 183788244738050122216730884728715359420 (0x8A445411CF0210C08CFF0026697634BC)
Complete name: E:\Загрузки\Эпоха.героев.2011.L2.Rus.Eng.BDRip.x264.FireBit.mkv
Format: Matroska
File size: 1.79 GiB
Duration: 1h 33mn
Overall bit rate: 2 749 Kbps
Movie name: Эпоха героев / Age of Heroes (2011) BDRip-AVC от FireBit
Encoded date: UTC 2011-06-27 11:59:50
Writing application: mkvmerge v2.3.0 ('Freak U') built on Sep8 2008 18:32:16
Writing library: libebml v0.7.7 + libmatroska v0.8.1

Video
ID: 1
Format: AVC
Format/Info: Advanced Video Codec
Format profile:
Format settings, CABAC: Yes
Format settings, ReFrames: 5 frames
Codec ID: V_MPEG4/ISO/AVC
Duration: 1h 33mn
Bit rate: 1 926 Kbps
Width: 1 280 pixels
Height: 544 pixels
Display aspect ratio: 2.35:1
Frame rate mode: Variable
Frame rate: 24.000 fps
Color space: YUV
Chroma subsampling: 4:2:0
Bit depth: 8 bits
Scan type: Progressive
Bits/(Pixel*Frame): 0.115
Stream size: 1.26 GiB (70%)
Title: http://firebit.org
Language: English
Color primaries: BT.709-5, BT.1361, IEC 61966-2-4, SMPTE RP177
Transfer characteristics: BT.709-5, BT.1361
Matrix coefficients: BT.709-5, BT.1361, IEC 61966-2-4 709, SMPTE RP177

Audio #1
ID: 2
Format: AC-3
Format/Info: Audio Coding 3
Mode extension: CM (complete main)
Codec ID: A_AC3
Duration: 1h 33mn
Bit rate mode: Constant
Bit rate: 640 Kbps
Channel(s): 6 channels
Channel positions: Front: L C R, Side: L R, LFE
Sampling rate: 48.0 KHz
Bit depth: 16 bits
Compression mode: Lossy
Delay relative to video: 16ms
Stream size: 428 MiB (23%)
Title: http://firebit.org
Language: Russian

Audio #2
ID: 3
Format: AC-3
Format/Info: Audio Coding 3
Mode extension: CM (complete main)
Codec ID: A_AC3
Duration: 1h 33mn
Bit rate mode: Constant
Bit rate: 128 Kbps
Channel(s): 2 channels
Channel positions: Front: L R
Sampling rate: 48.0 KHz
Bit depth: 16 bits
Compression mode: Lossy
Delay relative to video: 16ms
Stream size: 85.5 MiB (5%)
Title: http://firebit.org
Language: English

Text #1
ID: 4
Format: UTF-8
Codec ID: S_TEXT/UTF8
Codec ID/Info: UTF-8 Plain Text
Title: http://firebit.org
Language: English

Text #2
ID: 5
Format: UTF-8
Codec ID: S_TEXT/UTF8
Codec ID/Info: UTF-8 Plain Text
Title: http://firebit.org
Language: English










Поделиться:




реклама партнёра


Вернуться к началу
 Профиль Отправить личное сообщение  
 
   Похожие торренты   Автор   Торрент   Размер 
В этой теме нет новых непрочитанных сообщений. Ад для героев / Hell Is for Heroes [драма, военный, 1962] WEB-DL 1080p, Dvo

salma3

31 | 28

9.77 ГБ

В этой теме нет новых непрочитанных сообщений. Мифика: Задание для героев / Mythica: A Quest for Heroes (Энн К. Блэк) [Фэнтези, 2015] HDRip, Mvo

Dracon

47 | 5

1.45 ГБ

В этой теме нет новых непрочитанных сообщений. Мифика: Задание для героев / Mythica: A Quest for Heroes [фэнтези, 2015] BDRip, Avo

salma3

1557 | 128

1.46 ГБ

В этой теме нет новых непрочитанных сообщений. Мифика: Задание для героев / Mythica: A Quest for Heroes [Фэнтези, 2015] BDRemux 1080p, Mvo

salma3

154 | 36

14.55 ГБ

В этой теме нет новых непрочитанных сообщений. Мифика: Задание для героев / Mythica: A Quest for Heroes (Энн К. Блэк) [2015, фэнтези, BDRip 720p] avo

Nickolas3435

551 | 25

2.99 ГБ

В этой теме нет новых непрочитанных сообщений. Герои не возвращаются / Heroes Don't Come Home [боевик, драма, военный, 2016] HDRip, Mvo

salma3

117 | 29

1.46 ГБ

В этой теме нет новых непрочитанных сообщений. Военные игры / War Games: At the End of the Day [триллер, ужасы, боевик, 2011] HDRip, Mvo [Лицензия]

salma3

29 | 12

1.46 ГБ


Начать новую тему Ответить на тему  [ 1 сообщение ] 




Для Мосгорсуда, Роскомнадзора и рекламодателей:: mosgorsud-torrent[собачка]yandex.ru