Торрент файл
скачать торрент магнет ссылка Добавлен: 10 янв 2012, 19:58
Размер: 2.1 ГБ
Сидеров: 183
Личеров: 26
Автор

СообщениеДобавлено: 10 янв 2012, 19:58 

Не в сети
Супермодератор
Аватара пользователя
Дата регистрации:
11 апр 2010, 18:10
Спасибо: 5799 / 7
Сообщения: 56779
Не брать живым / Green Zone



Перевод: Профессиональный (полное дублирование), cубтитры: отсутствуют
Формат: HDRip-AVC, MKV, H.264, AC3
Страна: США, Франция, Великобритания, Испания
Режиссер: Пол Гринграсс
Жанр: боевик, триллер, военный
Продолжительность: 01:54:46
Год выпуска: 2010

В ролях: Мэтт Дэймон, Грег Киннер, Брендан Глисон, Халид Абдалла, Джейсон Айзекс, Эми Райан, Саид Фарадж, Никойе Бэнкс, Эдуард Х. Р. Глюк, Йигал Наор

Описание: В «Зелёной зоне» оккупированного Ирака — территории, находящейся под контролем армии Соединенных Штатов — агенты ЦРУ тщетно ищут следы оружия массового поражения. Необъективность расследования становится очевидной офицеру Рою Миллеру, попытавшемуся придать огласке полученные результаты. Но как далеко могут зайти генералы, решившие во что бы то ни стало навести порядок в нестабильном регионе?



Видео: 1008 x 416 (2.40:1), 23.976 fps, AVC, х264, , ~ 2238 Kbps, 0.223 bit/pixel
Аудио: 48 kHz, AC3 Dolby Digital, 3/2 (L,C,R,l,r) + LFE ch, ~384 kbps


Рип: jeenart

General
Unique ID: 221023664078309748710742588049281506457 (0xA6479BFB8572E07C93E5ABFC3BB7DC99)
Complete name: F:\Мои релизы\Все релизы 10\ne_brat_zhyvim_[tfile.ru].mkv
Format: Matroska
File size: 2.10 GiB
Duration: 1h 54mn
Overall bit rate: 2 623 Kbps
Encoded date: UTC 2011-07-01 19:44:19
Writing application: mkvmerge v4.6.0 ('Still Crazy After All These Years') сборка от Apr1 2011 21:01:49
Writing library: libebml v1.2.0 + libmatroska v1.1.0

Video
ID: 1
Format: AVC
Format/Info: Advanced Video Codec
Format profile:
Format settings, CABAC: Yes
Format settings, ReFrames: 3 frames
Codec ID: V_MPEG4/ISO/AVC
Duration: 1h 54mn
Bit rate: 2 238 Kbps
Width: 1 008 pixels
Height: 416 pixels
Display aspect ratio: 2.40:1
Frame rate: 23.976 fps
Color space: YUV
Chroma subsampling: 4:2:0
Bit depth: 8 bits
Scan type: Progressive
Bits/(Pixel*Frame): 0.223
Stream size: 1.75 GiB (83%)
Writing library: x264 core 115 r1937 aa21558
Encoding settings: cabac=1 / ref=3 / deblock=1:-1:-1 / analyse=0x3:0x113 / me=dia / subme=7 / psy=1 / psy_rd=1.00:0.10 / mixed_ref=1 / me_range=16 / chroma_me=1 / trellis=1 / 8x8dct=1 / cqm=0 / deadzone=21,11 / fast_pskip=1 / chroma_qp_offset=-3 / threads=6 / sliced_threads=0 / nr=0 / decimate=1 / interlaced=0 / bluray_compat=0 / constrained_intra=0 / bframes=1 / b_pyramid=0 / b_adapt=0 / b_bias=0 / direct=0 / weightb=1 / open_gop=0 / weightp=0 / keyint=250 / keyint_min=23 / scenecut=40 / intra_refresh=0 / rc_lookahead=40 / rc=2pass / mbtree=1 / bitrate=2238 / ratetol=1.0 / qcomp=0.60 / qpmin=0 / qpmax=69 / qpstep=4 / cplxblur=20.0 / qblur=0.5 / ip_ratio=1.40 / aq=1:1.00

Audio
ID: 2
Format: AC-3
Format/Info: Audio Coding 3
Mode extension: CM (complete main)
Codec ID: A_AC3
Duration: 1h 54mn
Bit rate mode: Constant
Bit rate: 384 Kbps
Channel(s): 6 channels
Channel positions: Front: L C R, Side: L R, LFE
Sampling rate: 48.0 KHz
Bit depth: 16 bits
Compression mode: Lossy
Stream size: 315 MiB (15%)
























Поделиться:




реклама партнёра


Вернуться к началу
 Профиль Отправить личное сообщение  
 
   Похожие торренты   Автор   Торрент   Размер 
В этой теме нет новых непрочитанных сообщений. Джейсон Борн / Jason Bourne (Пол Гринграсс) [2016, боевик, триллер, HDRip | Лицензия] Dub

marya111

2735 | 278

1.45 ГБ

В этой теме нет новых непрочитанных сообщений. Военные игры / War Games: At the End of the Day [триллер, ужасы, боевик, 2011] HDRip, Mvo [Лицензия]

salma3

29 | 12

1.46 ГБ

В этой теме нет новых непрочитанных сообщений. Большой матч / Big Match (Хо Чхве) [Боевик, триллер, комедия, 2014] HDRip [GREEN TEA]

Dracon

116 | 5

1.46 ГБ

В этой теме нет новых непрочитанных сообщений. Потерянный рейс / United 93 (Пол Гринграсс) [2006, боевик, триллер, драма, BDRip 720p] Dub

Nickolas3435

124 | 9

5.39 ГБ

В этой теме нет новых непрочитанных сообщений. Джейсон Борн / Jason Bourne (Пол Гринграсс) [2016, боевик, триллер, BDRip 720p | Лицензия] Dub

marya111

1242 | 97

7.9 ГБ

В этой теме нет новых непрочитанных сообщений. Хулиганы 3  / Green Street 3: Never Back Down [боевик, 2013] HDRip, Mvo

Dracon

29 | 4

1.37 ГБ

В этой теме нет новых непрочитанных сообщений. Зона / The Zone [Боевик, триллер, драма, 1995] DVDRip, Mvo

salma3

8 | 1

1.36 ГБ


Начать новую тему Ответить на тему  [ 1 сообщение ] 




Для Мосгорсуда, Роскомнадзора и рекламодателей:: mosgorsud-torrent[собачка]yandex.ru