Торрент файл
скачать торрент магнет ссылка Добавлен: 10 янв 2012, 19:56
Размер: 2.11 ГБ
Сидеров: 53
Личеров: 8
Автор

СообщениеДобавлено: 10 янв 2012, 19:56 

Не в сети
Супермодератор
Аватара пользователя
Дата регистрации:
11 апр 2010, 18:10
Спасибо: 5802 / 7
Сообщения: 56779
Эпоха героев / Age of Heroes


Перевод: Любительский (двухголосый), cубтитры: отсутствуют

Формат: HDRip-AVC, MKV, H.264, AC3

Страна: Великобритания

Режиссер: Эдриан Виториа

Жанр: военный

Продолжительность: 01:33:34

Год выпуска: 2011

В ролях: Шон Бин,Изабелла Мико, Дэнни Дайер, Джеймс Д’Арси, Себастьян Стрит, Аксель Хенни, Уильям Хьюстон, Рози Феллнер, Дэниэл Броклбэнки

Описание: Фильм основан на реальных событиях и рассказывает о знаменитом английском отряде «30 Assault Unit», известном также под названием «30 Commando». Отряд был сформирован во время Второй мировой по инициативе Яна Флеминга, служившего тогда в британской военно-морской разведке, и действовал на оккупированной нацистами территории. Его задачей была добыча немецкой секретной документации и различных технических устройств.



Видео: 1024x432 (2.35:1), 23.976 fps, AVC, х264, , ~ 2 450 Kbps 0.231 bit/pixel

Аудио #1: Русский: 48 kHz, AC3 Dolby Digital, 3/2 (L,C,R,l,r) + LFE ch, ~384.00 kbps Любительский (двухголосый)
Аудио #2: Английский: 48 kHz, AC3 Dolby Digital, 3/2 (L,C,R,l,r) + LFE ch, ~384.00 kbps avg [Оригинал]

Доп. информация: Премьера (мир) 20 мая 2011

Релиз группа:

General
Unique ID: 213574459728650178762808143824066991926 (0xA0ACF1DA235ACBB1976ECD270DD85736)
Complete name: E:\Загрузки\Epoha.geroev.2011.x264.BDRip.(AVC).ExKinoRay.mkv
Format: Matroska
File size: 2.11 GiB
Duration: 1h 33mn
Overall bit rate: 3 221 Kbps
Encoded date: UTC 2011-06-28 02:15:29
Writing application: mkvmerge v2.3.0 ('Freak U') built on Sep8 2008 18:32:16
Writing library: libebml v0.7.7 + libmatroska v0.8.1

Video
ID: 1
Format: AVC
Format/Info: Advanced Video Codec
Format profile:
Format settings, CABAC: Yes
Format settings, ReFrames: 8 frames
Codec ID: V_MPEG4/ISO/AVC
Duration: 1h 33mn
Bit rate: 2 450 Kbps
Width: 1 024 pixels
Height: 432 pixels
Display aspect ratio: 2.35:1
Original display aspect ratio: 2.35:1
Frame rate: 24.000 fps
Color space: YUV
Chroma subsampling: 4:2:0
Bit depth: 8 bits
Scan type: Progressive
Bits/(Pixel*Frame): 0.231
Stream size: 1.56 GiB (74%)
Writing library: x264 core 115 r1937 aa21558
Encoding settings: cabac=1 / ref=8 / deblock=1:-1:-1 / analyse=0x3:0x133 / me=umh / subme=0 / psy=1 / psy_rd=0.00:0.00 / mixed_ref=0 / me_range=48 / chroma_me=1 / trellis=0 / 8x8dct=1 / cqm=0 / deadzone=21,11 / fast_pskip=0 / chroma_qp_offset=0 / threads=6 / sliced_threads=0 / nr=0 / decimate=1 / interlaced=0 / bluray_compat=0 / constrained_intra=0 / bframes=8 / b_pyramid=2 / b_adapt=2 / b_bias=0 / direct=1 / weightb=1 / open_gop=0 / weightp=2 / keyint=250 / keyint_min=23 / scenecut=40 / intra_refresh=0 / rc=2pass / mbtree=0 / bitrate=2450 / ratetol=1.0 / qcomp=0.60 / qpmin=10 / qpmax=51 / qpstep=4 / cplxblur=20.0 / qblur=0.5 / ip_ratio=1.40 / pb_ratio=1.30 / aq=1:1.00

Audio #1
ID: 2
Format: AC-3
Format/Info: Audio Coding 3
Mode extension: CM (complete main)
Codec ID: A_AC3
Duration: 1h 33mn
Bit rate mode: Constant
Bit rate: 384 Kbps
Channel(s): 6 channels
Channel positions: Front: L C R, Side: L R, LFE
Sampling rate: 48.0 KHz
Bit depth: 16 bits
Compression mode: Lossy
Stream size: 257 MiB (12%)

Audio #2
ID: 3
Format: AC-3
Format/Info: Audio Coding 3
Mode extension: CM (complete main)
Codec ID: A_AC3
Duration: 1h 33mn
Bit rate mode: Constant
Bit rate: 384 Kbps
Channel(s): 6 channels
Channel positions: Front: L C R, Side: L R, LFE
Sampling rate: 48.0 KHz
Bit depth: 16 bits
Compression mode: Lossy
Stream size: 257 MiB (12%)










Поделиться:




реклама партнёра


Вернуться к началу
 Профиль Отправить личное сообщение  
 
   Похожие торренты   Автор   Торрент   Размер 
В этой теме нет новых непрочитанных сообщений. Мифика: Задание для героев / Mythica: A Quest for Heroes (Энн К. Блэк) [Фэнтези, 2015] HDRip, Mvo

Dracon

47 | 5

1.45 ГБ

В этой теме нет новых непрочитанных сообщений. Мифика: Задание для героев / Mythica: A Quest for Heroes [фэнтези, 2015] BDRip, Avo

salma3

1557 | 128

1.46 ГБ

В этой теме нет новых непрочитанных сообщений. Мифика: Задание для героев / Mythica: A Quest for Heroes [Фэнтези, 2015] BDRemux 1080p, Mvo

salma3

154 | 36

14.55 ГБ

В этой теме нет новых непрочитанных сообщений. Мифика: Задание для героев / Mythica: A Quest for Heroes (Энн К. Блэк) [2015, фэнтези, BDRip 720p] avo

Nickolas3435

551 | 25

2.99 ГБ

В этой теме нет новых непрочитанных сообщений. Военные игры / War Games: At the End of the Day [триллер, ужасы, боевик, 2011] HDRip, Mvo [Лицензия]

salma3

29 | 12

1.46 ГБ

В этой теме нет новых непрочитанных сообщений. Военные потери / Casualties of War [Драма, приключения, военный, 1989] BDRemux 1080p, Dvo+Avo+Sub

salma3

2 | 3

26.02 ГБ

В этой теме нет новых непрочитанных сообщений. Военные потери / Casualties of War [Драма, приключения, военный, 1989] BDRip 1080p, Dvo+Avo+Sub

salma3

23 | 4

7.91 ГБ


Начать новую тему Ответить на тему  [ 1 сообщение ] 




Для Мосгорсуда, Роскомнадзора и рекламодателей:: mosgorsud-torrent[собачка]yandex.ru