Торрент файл
скачать торрент магнет ссылка Добавлен: 10 янв 2012, 19:54
Размер: 2.1 ГБ
Сидеров: 253
Личеров: 13
Автор

СообщениеДобавлено: 10 янв 2012, 19:54 

Не в сети
Супермодератор
Аватара пользователя
Дата регистрации:
11 апр 2010, 18:10
Спасибо: 5799 / 7
Сообщения: 56779
Перл Харбор / Pearl Harbor




Перевод: Профессиональный (полное дублирование),субтитры: отсутствуют
Формат: HDRip-AVC, MKV, H.264, AC3
Страна: США
Жанр: боевик, драма, мелодрама, военный
Продолжительность: 03:30:00
Режиссер: Майкл Бэй/Michael Bay
Год выпуска: 2001

В ролях: Бен Аффлек, Джош Хартнетт, Кейт Бекинсейл, Кьюба Гудинг мл., Джон Войт, Алек Болдуин, Том Сайзмор, Уильям Ли Скотт, Грег Зола, Юэн Бремнер

Описание:Эта история двух друзей — летчиков. Их судьбы переплавились в топке Второй мировой войны. Их чувства были опалены языками великой страсти. Огонь стал для них вторым домом.

Мир рушился, прошлое скрылось в сумерках пожарищ, и теперь за будущее должен был бороться каждый, на земле и на небе, в дружбе и вражде.


________

Видео: 960 x 400 (2:40:1), 23,976 кадр/сек, AVC (х264),High@L3.1, ~ 1260 Kbps,0.137 bit/pixel
Аудио: 48 kHz, AC3 Dolby Digital, 3/2 (L,C,R,l,r) + LFE ch, ~384 kbps


Автор РИПа:ddimmon22
Общее
Уникальный идентификатор: 218977623851171923941584978189838120997 (0xA4BD8E6930AAE0088D616C65EF1AF825)
Полное имя: K:\РИПЫ\pear_harbor_[tfile.ru].mkv
Формат: Matroska
Версия формата: Version 2
Размер файла: 2,10 Гбайт
Продолжительность: 3 ч. 3 м.
Общий поток: 1644 Кбит/сек
Дата кодирования: UTC 2011-09-11 15:16:06
Программа кодирования: mkvmerge v4.9.1 ('Ich will') сборка от Aug 10 2011 09:31:20
Библиотека кодирования: libebml v1.2.1 + libmatroska v1.2.0

Видео
Идентификатор: 1
Формат: AVC
Формат/Информация: Advanced Video Codec
Профиль формата:
Параметр CABAC формата: Да
Параметр ReFrames формата: 8 кадров
Идентификатор кодека: V_MPEG4/ISO/AVC
Продолжительность: 3 ч. 3 м.
Битрейт: 1260 Кбит/сек
Ширина: 960 пикс.
Высота: 400 пикс.
Соотношение сторон: 2,40:1
Частота кадров: 23,976 кадр/сек
Цветовое пространство: YUV
Подвыборка цветности: 4:2:0
Битовая глубина: 8 бит
Тип развёртки: Прогрессивная
Бит/(Пиксели*Кадры): 0.137
Размер потока: 1,57 Гбайт (75%)
Библиотека кодирования: x264 core 116 r2074 2641b9e
Настройки программы: cabac=1 / ref=8 / deblock=1:-1:-1 / analyse=0x3:0x133 / me=umh / subme=7 / psy=1 / psy_rd=1.00:0.10 / mixed_ref=1 / me_range=16 / chroma_me=1 / trellis=2 / 8x8dct=1 / cqm=0 / deadzone=21,11 / fast_pskip=0 / chroma_qp_offset=-3 / threads=6 / sliced_threads=0 / nr=0 / decimate=1 / interlaced=0 / bluray_compat=0 / constrained_intra=0 / bframes=3 / b_pyramid=2 / b_adapt=2 / b_bias=0 / direct=3 / weightb=1 / open_gop=0 / weightp=2 / keyint=250 / keyint_min=23 / scenecut=40 / intra_refresh=0 / rc_lookahead=50 / rc=2pass / mbtree=1 / bitrate=1260 / ratetol=1.0 / qcomp=0.60 / qpmin=0 / qpmax=69 / qpstep=4 / cplxblur=20.0 / qblur=0.5 / ip_ratio=1.40 / aq=1:1.00

Аудио
Идентификатор: 2
Формат: AC-3
Формат/Информация: Audio Coding 3
Расширение режима: CM (complete main)
Идентификатор кодека: A_AC3
Продолжительность: 3 ч. 3 м.
Вид битрейта: Постоянный
Битрейт: 384 Кбит/сек
Каналы: 6 каналов
Расположение каналов: Front: L C R, Side: L R, LFE
Частота: 48,0 КГц
Битовая глубина: 16 бит
Метод сжатия: С потерями
Размер потока: 503 Мбайт (23%)
















Поделиться:




реклама партнёра


Вернуться к началу
 Профиль Отправить личное сообщение  
 
   Похожие торренты   Автор   Торрент   Размер 
В этой теме нет новых непрочитанных сообщений. Перл Харбор / Pearl Harbor [боевик, драма, мелодрама, военный, 2001] BDRip, Dub

salma3

75 | 6

1.46 ГБ

В этой теме нет новых непрочитанных сообщений. Сэйв-Харбор / Safe Harbor [драма, 2009] HDTV 1080i, Mvo

salma3

8 | 2

5.7 ГБ

В этой теме нет новых непрочитанных сообщений. Майкл Коллинз / Michael Collins [Триллер, драма, военный, биография, 1996] BDRip 720p, Dub

salma3

59 | 26

6.1 ГБ

В этой теме нет новых непрочитанных сообщений. Первая любовь / Outside Providence (Майкл Корренте / Michael Corrente) [1999г., комедия, мелодрама, драма, WEB-DLRip] MVO

Alfredovich

2 | 0

1.71 ГБ

В этой теме нет новых непрочитанных сообщений. Нервы на пределе / High Strung (Майкл Дамиан / Michael Damian) [2016г., драма, мелодрама, музыка,WEB-DLRip] mvo

Alfredovich

1210 | 53

1.45 ГБ

В этой теме нет новых непрочитанных сообщений. Мушкетер / The Musketeer [боевик, драма, мелодрама, приключения, 2001] HDRip, Dub

salma3

76 | 10

1.47 ГБ

В этой теме нет новых непрочитанных сообщений. Только для влюбленных / For Lovers Only (Майкл Полиш / Michael Polish) [2011г., мелодрама, WEB-DLRip] sub

Alfredovich

4 | 2

1.2 ГБ


Начать новую тему Ответить на тему  [ 1 сообщение ] 




Для Мосгорсуда, Роскомнадзора и рекламодателей:: mosgorsud-torrent[собачка]yandex.ru