Торрент файл
скачать торрент магнет ссылка Добавлен: 10 янв 2012, 19:54
Размер: 2.1 ГБ
Сидеров: 82
Личеров: 11
Автор

СообщениеДобавлено: 10 янв 2012, 19:54 

Не в сети
Супермодератор
Аватара пользователя
Дата регистрации:
11 апр 2010, 18:10
Спасибо: 5802 / 7
Сообщения: 56779
Тонкая красная линия / The Thin Red Line



Перевод: Профессиональный (полное дублирование), cубтитры: отсутствуют
Формат: HDRip-AVC, MKV, H.264, AC3
Страна: США
Режиссер: Терренс Малик
Жанр: боевик, драма, военный
Продолжительность: 02:50:47
Год выпуска: 1998

В ролях: Кирк Асеведо, Шон Пенн, Пенелопа Аллен, Эдриан Броуди, Джеймс Кэвизел, Бенжамин Грин, Саймон Биллиг, Бен Чаплин, Марк Бун Джуниор, Джордж Клуни, Джон Кьюсак, Вуди Харрельсон, Ник Нолти, Джон Си Райли, Джон Траволта

Описание: Фильм рассказывает о нескольких месяцах жизни армейского подразделения, в том числе об участии этого подразделения в одной из решающих и сложных операций XX-го века — битве за Гвадалканал. Американские пехотинцы посланы на подмогу морским подразделениям, измотанным схваткой с японцами.
В центре фильма — судьба стрелкового батальона: неожиданно спокойная высадка, кровавые бои и трагическое отступление тех, кому удалось выжить.




Видео: 960 x 408 (2:35:1), 23.976 fps, AVC (х264) , ~ 1380 Kbps, 0.147 bit/pixel
Аудио: 48 kHz, AC3 Dolby Digital, 3/2 (L,C,R,l,r) + LFE ch, ~384 kbps


Рип: jeenart

General
Unique ID: 226415233477609277241587228295177825809 (0xAA55FCE097719ED0A5014592F165EE11)
Complete name: F:\Мои релизы\Все релизы 10\tonkaya_krasnaya_liniya_[tfile.ru].mkv
Format: Matroska
File size: 2.10 GiB
Duration: 2h 50mn
Overall bit rate: 1 765 Kbps
Encoded date: UTC 2011-09-18 00:08:03
Writing application: mkvmerge v4.6.0 ('Still Crazy After All These Years') сборка от Apr1 2011 21:01:49
Writing library: libebml v1.2.0 + libmatroska v1.1.0

Video
ID: 1
Format: AVC
Format/Info: Advanced Video Codec
Format profile:
Format settings, CABAC: Yes
Format settings, ReFrames: 4 frames
Codec ID: V_MPEG4/ISO/AVC
Duration: 2h 50mn
Bit rate: 1 380 Kbps
Width: 960 pixels
Height: 408 pixels
Display aspect ratio: 2.35:1
Frame rate: 23.976 fps
Color space: YUV
Chroma subsampling: 4:2:0
Bit depth: 8 bits
Scan type: Progressive
Bits/(Pixel*Frame): 0.147
Stream size: 1.60 GiB (76%)
Writing library: x264 core 115 r1937 aa21558
Encoding settings: cabac=1 / ref=3 / deblock=1:-1:-1 / analyse=0x3:0x113 / me=hex / subme=7 / psy=1 / psy_rd=1.00:0.10 / mixed_ref=1 / me_range=16 / chroma_me=1 / trellis=1 / 8x8dct=1 / cqm=0 / deadzone=21,11 / fast_pskip=1 / chroma_qp_offset=-3 / threads=6 / sliced_threads=0 / nr=0 / decimate=1 / interlaced=0 / bluray_compat=0 / constrained_intra=0 / bframes=3 / b_pyramid=2 / b_adapt=1 / b_bias=0 / direct=1 / weightb=1 / open_gop=0 / weightp=2 / keyint=250 / keyint_min=23 / scenecut=40 / intra_refresh=0 / rc_lookahead=40 / rc=2pass / mbtree=1 / bitrate=1380 / ratetol=1.0 / qcomp=0.60 / qpmin=0 / qpmax=69 / qpstep=4 / cplxblur=20.0 / qblur=0.5 / ip_ratio=1.40 / aq=1:1.00

Audio
ID: 2
Format: AC-3
Format/Info: Audio Coding 3
Mode extension: CM (complete main)
Codec ID: A_AC3
Duration: 2h 50mn
Bit rate mode: Constant
Bit rate: 384 Kbps
Channel(s): 6 channels
Channel positions: Front: L C R, Side: L R, LFE
Sampling rate: 48.0 KHz
Bit depth: 16 bits
Compression mode: Lossy
Stream size: 469 MiB (22%)



























Поделиться:




реклама партнёра


Вернуться к началу
 Профиль Отправить личное сообщение  
 
   Похожие торренты   Автор   Торрент   Размер 
В этой теме нет новых непрочитанных сообщений. Красная линия / Red Line [триллер, 2013] BDRip 720p, dvo [НТВ+]

salma3

33 | 3

4.13 ГБ

В этой теме нет новых непрочитанных сообщений. Красная линия / Red Line [триллер, 2013] BDRip 1080p, dvo [НТВ+]

salma3

21 | 2

8.19 ГБ

В этой теме нет новых непрочитанных сообщений. Рыцарь кубков / Knight of Cups (Терренс Малик) [2015, драма, мелодрама, HDRip | Parovoz Production] dvo

Nickolas3435

1501 | 57

1.45 ГБ

В этой теме нет новых непрочитанных сообщений. Рыцарь кубков / Knight of Cups (Терренс Малик) [2015, драма, мелодрама, BDRip 720p | Parovoz Production] dvo

Nickolas3435

617 | 13

4.74 ГБ

В этой теме нет новых непрочитанных сообщений. P-51: Истребитель драконов / P-51 Dragon Fighter (Марк Аткинс) [Фантастика, фэнтези, боевик, военный, 2014] HDRip, mvo [Line]

Dracon

10 | 2

1.37 ГБ

В этой теме нет новых непрочитанных сообщений. Большая красная единица / The Big Red One [Боевик, драма, военный, 1980] BDRip 720p, Avo+Sub

salma3

11 | 2

6.01 ГБ

В этой теме нет новых непрочитанных сообщений. Большая красная единица / The Big Red One [Боевик, драма, военный, 1980] BDRip 1080p, Avo+Sub

salma3

3 | 4

14.54 ГБ


Начать новую тему Ответить на тему  [ 1 сообщение ] 




Для Мосгорсуда, Роскомнадзора и рекламодателей:: mosgorsud-torrent[собачка]yandex.ru