Торрент файл
скачать торрент магнет ссылка Добавлен: 10 янв 2012, 19:53
Размер: 2.1 ГБ
Сидеров: 26
Личеров: 8
Автор

СообщениеДобавлено: 10 янв 2012, 19:53 

Не в сети
Супермодератор
Аватара пользователя
Дата регистрации:
11 апр 2010, 18:10
Спасибо: 5798 / 7
Сообщения: 56779
Мы были солдатами / We were soldiers




Перевод: Профессиональный (полное дублирование),субтитры: отсутствуют
Формат: HDRip-AVC, MKV, H.264, AC3
Страна: США, Германия
Жанр: боевик, военный, история
Продолжительность: 02:18:00
Режиссер: Рэндалл Уоллес / Randall Wallace
Год выпуска: 2002

В ролях: Мэл Гибсон, Мэдлин Стоу, Грег Киннер, Сэм Эллиотт, Крис Клейн, Кери Рассел, Бэрри Пеппер, Дон Дуонг, Райан Херст, Роберт Бэгнелл

Описание:Рассказ о героях и их героизме, которых незаслуженно забыли при сражении под Ай Дрэнгом. В первом крупном сражении между американскими и вьетконговскими войсками 395 американцев оказалось в окружении, причем враг значительно превосходил их по численности. События происходили с 23 октября по 26 ноября 1965 года.

________

Видео: 1280x 544 (2:35:1), 23,976 кадр/сек, AVC (х264),High@L4.0, ~1788 Kbps, 0.107 bit/pixel
Аудио: 48 kHz, AC3 Dolby Digital, 3/2 (L,C,R,l,r) + LFE ch, ~384 kbps


Автор РИПа:ddimmon22
Общее
Уникальный идентификатор: 233545466040228284717227936614768872643 (0xAFB3387C031A5AF08E587F3DAB2E8CC3)
Полное имя: K:\РИПЫ\we_were_soldiers_[tfile.ru].mkv
Формат: Matroska
Версия формата: Version 2
Размер файла: 2,10 Гбайт
Продолжительность: 2 ч. 18 м.
Общий поток: 2173 Кбит/сек
Дата кодирования: UTC 2011-09-21 23:39:12
Программа кодирования: mkvmerge v4.9.1 ('Ich will') сборка от Aug 10 2011 09:31:20
Библиотека кодирования: libebml v1.2.1 + libmatroska v1.2.0

Видео
Идентификатор: 1
Формат: AVC
Формат/Информация: Advanced Video Codec
Профиль формата:
Параметр CABAC формата: Да
Параметр ReFrames формата: 8 кадров
Идентификатор кодека: V_MPEG4/ISO/AVC
Продолжительность: 2 ч. 18 м.
Битрейт: 1788 Кбит/сек
Ширина: 1280 пикс.
Высота: 544 пикс.
Соотношение сторон: 2,35:1
Частота кадров: 23,976 кадр/сек
Цветовое пространство: YUV
Подвыборка цветности: 4:2:0
Битовая глубина: 8 бит
Тип развёртки: Прогрессивная
Бит/(Пиксели*Кадры): 0.107
Размер потока: 1,69 Гбайт (80%)
Библиотека кодирования: x264 core 116 r2074 2641b9e
Настройки программы: cabac=1 / ref=8 / deblock=1:-1:-1 / analyse=0x3:0x133 / me=umh / subme=7 / psy=1 / psy_rd=1.00:0.10 / mixed_ref=1 / me_range=16 / chroma_me=1 / trellis=2 / 8x8dct=1 / cqm=0 / deadzone=21,11 / fast_pskip=0 / chroma_qp_offset=-3 / threads=6 / sliced_threads=0 / nr=0 / decimate=1 / interlaced=0 / bluray_compat=0 / constrained_intra=0 / bframes=3 / b_pyramid=2 / b_adapt=2 / b_bias=0 / direct=3 / weightb=1 / open_gop=0 / weightp=2 / keyint=250 / keyint_min=23 / scenecut=40 / intra_refresh=0 / rc_lookahead=50 / rc=2pass / mbtree=1 / bitrate=1788 / ratetol=1.0 / qcomp=0.60 / qpmin=0 / qpmax=69 / qpstep=4 / cplxblur=20.0 / qblur=0.5 / ip_ratio=1.40 / aq=1:1.00

Аудио
Идентификатор: 2
Формат: AC-3
Формат/Информация: Audio Coding 3
Расширение режима: CM (complete main)
Идентификатор кодека: A_AC3
Продолжительность: 2 ч. 18 м.
Вид битрейта: Постоянный
Битрейт: 384 Кбит/сек
Каналы: 6 каналов
Расположение каналов: Front: L C R, Side: L R, LFE
Частота: 48,0 КГц
Битовая глубина: 16 бит
Метод сжатия: С потерями
Размер потока: 380 Мбайт (18%)












Поделиться:




реклама партнёра


Вернуться к началу
 Профиль Отправить личное сообщение  
 
   Похожие торренты   Автор   Торрент   Размер 
В этой теме нет новых непрочитанных сообщений. 13 часов: Тайные солдаты Бенгази / 13 Hours: The Secret Soldiers of Benghazi [боевик, триллер, драма, военный, 2016] HDRip, Dub [чистый звук]

salma3

150 | 3

2.05 ГБ

В этой теме нет новых непрочитанных сообщений. Forbidden Encounters / Запретные Встречи (Holly Randall, Holly Randall Productions) [2016 г., All Sex, Cunnilingus, Oral, BigTits, Big Cocks, DVDRip]

max77777

0 | 0

1.14 ГБ

В этой теме нет новых непрочитанных сообщений. Псы-воины / Dog Soldiers [Ужасы, фэнтези, боевик, триллер, приключения, 2002] BDRip 1080p, Mvo+Dvo+2Avo+Sub

salma3

16 | 13

15.88 ГБ

В этой теме нет новых непрочитанных сообщений. Псы-воины / Dog Soldiers [Ужасы, фэнтези, боевик, триллер, приключения, 2002] BDRip 720p, Mvo+Dvo+2Avo+Sub

salma3

19 | 9

9.3 ГБ

В этой теме нет новых непрочитанных сообщений. 13 часов: Тайные солдаты Бенгази / 13 Hours: The Secret Soldiers of Benghazi [Боевик, триллер, драма, военный, 2016] Blu-Ray, Dub [Лицензия]

salma3

71 | 40

40.38 ГБ

В этой теме нет новых непрочитанных сообщений. 13 часов: Тайные солдаты Бенгази / 13 Hours: The Secret Soldiers of Benghazi [боевик, триллер, драма, военный, 2016] BDRip-AVC, Dub+Sub

salma3

44 | 3

1.46 ГБ

В этой теме нет новых непрочитанных сообщений. 13 часов: Тайные солдаты Бенгази / 13 Hours: The Secret Soldiers of Benghazi [Боевик, триллер, драма, военный, 2016] BDRip 1080p, Dub [Лицензия]

salma3

569 | 213

17.48 ГБ


Начать новую тему Ответить на тему  [ 1 сообщение ] 




Для Мосгорсуда, Роскомнадзора и рекламодателей:: mosgorsud-torrent[собачка]yandex.ru