Торрент файл
скачать торрент магнет ссылка Добавлен: 10 янв 2012, 19:51
Размер: 1.45 ГБ
Сидеров: 29
Личеров: 9
Автор

СообщениеДобавлено: 10 янв 2012, 19:51 

Не в сети
Супермодератор
Аватара пользователя
Дата регистрации:
11 апр 2010, 18:10
Спасибо: 5962 / 7
Сообщения: 56765
Орел Шарпа /Sharpe's Eagle




Перевод: Профессиональный (многоголосый, закадровый).субтитры: отсутствуют
Формат: HDRip-AVC, MKV, H.264, AC3
Страна: Великобритания
Жанр: боевик, приключения, военный, история
Продолжительность: 01:38:00
Режиссер: Том Клегг / Tom Clegg
Год выпуска: 1993

В ролях: Шон Бин, Брайан Кокс, Дара О’Мэлли, Ассумпта Серна, Майкл Кокрейн, Дэвид Тротон, Мартин Джейкобс, Катя Кабальер,о Майкл Мирс, Джон Тэмс

Описание:1809 год. Английская армия выдвигается в Испанию. В лагерь прибывает пополнение — Южный Эссекс — ни разу не бывавшие в бою новички под командованием некомпетентного, но богатого сэра Генри Симмерсона. Им поручается простое задание — взорвать мост в Валделакаса. Шарпа, повышенного до звания капитана, приставляют к ним…

____

Видео: 1024 x 576 (1:77:7),25,000 кадр/сек, AVC (х264), , ~1914 Kbps, 0.130 bit/pixel
Аудио: 48 kHz, AC3 Dolby Digital, 2/0 (L,R) ch, ~192 kbps


Автор РИПа:ddimmon22
Общее
Уникальный идентификатор: 192173143783955057812316049649625054994 (0x90933382A21D01E3BCEF74BDCF19BF12)
Полное имя: I:\oktzbr rupu\orel_sharpa_[tfile.ru].mkv
Формат: Matroska
Версия формата: Version 2
Размер файла: 1,45 Гбайт
Продолжительность: 1 ч. 38 м.
Общий поток: 2107 Кбит/сек
Дата кодирования: UTC 2011-10-14 00:58:50
Программа кодирования: mkvmerge v4.9.1 ('Ich will') сборка от Aug 10 2011 09:31:20
Библиотека кодирования: libebml v1.2.1 + libmatroska v1.2.0

Видео
Идентификатор: 1
Формат: AVC
Формат/Информация: Advanced Video Codec
Профиль формата:
Параметр CABAC формата: Да
Параметр ReFrames формата: 4 кадра
Идентификатор кодека: V_MPEG4/ISO/AVC
Продолжительность: 1 ч. 38 м.
Битрейт: 1914 Кбит/сек
Ширина: 1024 пикс.
Высота: 576 пикс.
Соотношение сторон: 16:9
Частота кадров: 25,000 кадр/сек
Цветовое пространство: YUV
Подвыборка цветности: 4:2:0
Битовая глубина: 8 бит
Тип развёртки: Прогрессивная
Бит/(Пиксели*Кадры): 0.130
Размер потока: 1,29 Гбайт (89%)
Библиотека кодирования: x264 core 116 r2074 2641b9e
Настройки программы: cabac=1 / ref=3 / deblock=1:-1:-1 / analyse=0x3:0x133 / me=umh / subme=7 / psy=1 / psy_rd=1.00:0.10 / mixed_ref=1 / me_range=16 / chroma_me=1 / trellis=2 / 8x8dct=1 / cqm=0 / deadzone=21,11 / fast_pskip=0 / chroma_qp_offset=-3 / threads=12 / sliced_threads=0 / nr=0 / decimate=1 / interlaced=0 / bluray_compat=0 / constrained_intra=0 / bframes=3 / b_pyramid=2 / b_adapt=1 / b_bias=0 / direct=1 / weightb=1 / open_gop=0 / weightp=2 / keyint=250 / keyint_min=25 / scenecut=40 / intra_refresh=0 / rc_lookahead=40 / rc=2pass / mbtree=1 / bitrate=1914 / ratetol=1.0 / qcomp=0.60 / qpmin=0 / qpmax=69 / qpstep=4 / cplxblur=20.0 / qblur=0.5 / ip_ratio=1.40 / aq=1:1.00

Аудио
Идентификатор: 2
Формат: AC-3
Формат/Информация: Audio Coding 3
Расширение режима: CM (complete main)
Идентификатор кодека: A_AC3
Продолжительность: 1 ч. 38 м.
Вид битрейта: Постоянный
Битрейт: 192 Кбит/сек
Каналы: 2 канала
Расположение каналов: Front: L R
Частота: 48,0 КГц
Битовая глубина: 16 бит
Метод сжатия: С потерями
Размер потока: 136 Мбайт (9%)














Поделиться:




реклама партнёра


Вернуться к началу
 Профиль Отправить личное сообщение  
 
   Похожие торренты   Автор   Торрент   Размер 
В этой теме нет новых непрочитанных сообщений. Орел приземлился / The Eagle Has Landed [Приключения, военный, 1976] BDRip 1080p, Dvo+Sub

salma3

146 | 51

10.83 ГБ

В этой теме нет новых непрочитанных сообщений. Орёл Девятого Легиона / The Eagle [Драма, история, экранизация, 2011] ВDRip 720р, Dub+Sub [Расширенная версия]

salma3

191 | 112

7.1 ГБ

В этой теме нет новых непрочитанных сообщений. Орел против акулы / Eagle vs Shark [мелодрама, комедия, 2007] HDRip, Dvo+Sub

salma3

58 | 5

1.46 ГБ

В этой теме нет новых непрочитанных сообщений. Орел против акулы / Eagle vs Shark [мелодрама, комедия, 2007] BDRip 720p, Mvo

salma3

27 | 9

3.13 ГБ

В этой теме нет новых непрочитанных сообщений. Бахубали: Начало / Baahubali: The Beginning [Боевик, приключения, военный, история, 2015] HDRip, Dvo

salma3

1887 | 70

1.46 ГБ

В этой теме нет новых непрочитанных сообщений. Эдди «Орел» / Eddie the Eagle [драма, комедия, биография, спорт, 2016] BDRip, Dub [лицензия]

salma3

369 | 20

1.46 ГБ

В этой теме нет новых непрочитанных сообщений. Эдди «Орел» / Eddie the Eagle ( драма, комедия, биография, спорт, 2016) BDRip 720p от HELLYWOOD | Лицензия

marya111

0 | 0

4.36 ГБ


Начать новую тему Ответить на тему  [ 1 сообщение ] 




Для Мосгорсуда, Роскомнадзора и рекламодателей:: mosgorsud-torrent[собачка]yandex.ru