Торрент файл
скачать торрент магнет ссылка Добавлен: 10 янв 2012, 19:48
Размер: 1.35 ГБ
Сидеров: 676
Личеров: 26
Автор

СообщениеДобавлено: 10 янв 2012, 19:48 

Не в сети
Супермодератор
Аватара пользователя
Дата регистрации:
11 апр 2010, 18:10
Спасибо: 5802 / 7
Сообщения: 56779
Последняя любовь на Земле / Perfect Sense


Перевод: Профессиональный (многоголосый, закадровый)
Субтитры: Отсутствуют
Формат: DVDRip, AVI, XviD, AC3
Страна: Германия, Дания, Швеция, Великобритания
Режиссер: Дэвид МакКензи
Жанр: драма, мелодрама
Продолжительность: 01:28:29
Год выпуска: 2011
В ролях: Юэн МакГрегор, Ева Грин, Конни Нильсен, Стивен Диллэйн, Юэн Бремнер, Дэнис Лоусон, Аластер Маккензи
Описание: Земля столкнулась с небывалым бедствием. В разных странах, на каждом континенте люди в самом буквальном смысле лишаются чувств — каждого из пяти, одного за другим… Майкл и Сьюзан считают свою связь мимолетной, но когда становится ясно, что мир неумолимо приближается к концу, герои понимают — им уже не прожить друг без друга. Но что останется, когда пропадут последние чувства?

Видео: 720x304 (2,35:1), 25 fps, XviD MPEG-4 Visual ~1911 kbps avg, 0.349 bit/pixel
Аудио: 48.000 kHz, AC-3, 6 ch, ~256 kbps avg
Общее
Полное имя: C:\Users\Zimm\Desktop\фильмы\Poslednaya_ljubov_na_zeme.avi
Формат: AVI
Формат/Информация: Audio Video Interleave
Размер файла: 1,35 Гбайт
Продолжительность: 1 ч. 28 м.
Общий поток: 2177 Кбит/сек
Программа кодирования: VirtualDubMod 1.5.10.3 | www.virtualdub-fr.org || (build 2550/release)
Библиотека кодирования: VirtualDubMod build 2550/release

Видео
Идентификатор: 0
Формат: MPEG-4 Visual
Профиль формата: Advanced Simple@L5
Параметр BVOP формата: 4
Параметр QPel формата: Нет
Параметр GMC формата: 3 точки перехода
Параметр матрицы формата: Default (H.263)
Режим смешивания: Сжатый битовый поток
Идентификатор кодека: XVID
Идентификатор кодека/Подсказка: XviD
Продолжительность: 1 ч. 28 м.
Битрейт: 1911 Кбит/сек
Ширина: 720 пикселей
Высота: 304 пикселя
Соотношение сторон: 2,35:1
Частота кадров: 25,000 кадров/сек
Цветовое пространство: YUV
Субдискретизация насыщенности: 4:2:0
Битовая глубина: 8 бит
Тип развёртки: Прогрессивная
Метод сжатия: С потерями
Бит/(Пиксели*Кадры): 0.349
Размер потока: 1,18 Гбайт (88%)
Библиотека кодирования: XviD 61

Аудио
Идентификатор: 1
Формат: AC-3
Формат/Информация: Audio Coding 3
Расширение режима: CM (complete main)
Идентификатор кодека: 2000
Продолжительность: 1 ч. 28 м.
Вид битрейта: Постоянный
Битрейт: 256 Кбит/сек
Каналы: 6 каналов
Расположение каналов: Front: L C R, Side: L R, LFE
Частота: 48,0 КГц
Битовая глубина: 16 бит
Метод сжатия: С потерями
Размер потока: 162 Мбайт (12%)
Выравнивание: Разделение по промежуткам
Продолжительность промежутка: 40мс. (1,00 видеокадр)
Время предзагрузки промежутка: 500мс.









Поделиться:




реклама партнёра


Вернуться к началу
 Профиль Отправить личное сообщение  
 
   Похожие торренты   Автор   Торрент   Размер 
В этой теме нет новых непрочитанных сообщений. Повторный Любой ценой / Hell or High Water (Дэвид Маккензи) [2016, Драма, криминал, WEB-DLRip | iTunes] Dub Данный торрент является блокированным, причина: повторный торрент

marya111

0 | 0

1.46 ГБ

В этой теме нет новых непрочитанных сообщений. От звонка до звонка / Starred Up (Дэвид Маккензи) [2013, драма, BDRip 720p] avo

Nickolas3435

297 | 12

4.63 ГБ

В этой теме нет новых непрочитанных сообщений. От звонка до звонка / Starred Up (Дэвид Маккензи) [Драма, криминал, 2013] HDRip, Mvo

Dracon

1700 | 358

1.45 ГБ

В этой теме нет новых непрочитанных сообщений. От звонка до звонка / Starred Up (Дэвид Маккензи) [Драма, криминал, 2013] BDRip 720p, Mvo

Dracon

453 | 146

5.07 ГБ

В этой теме нет новых непрочитанных сообщений. От звонка до звонка / Starred Up (Дэвид Маккензи) [Драма, криминал, 2013] BDRip 1080p, Mvo

Dracon

158 | 48

11.25 ГБ

В этой теме нет новых непрочитанных сообщений. Последняя любовь мистера Моргана / Mr. Morgan's Last Love [драма, комедия, 2013] HDRip, Dvo

salma3

824 | 23

1.45 ГБ

В этой теме нет новых непрочитанных сообщений. Идеальный парень / The Perfect Guy (Дэвид М. Розенталь) [триллер, драма, 2015] HDRip, Mvo [iTunes]

Dracon

279 | 37

1.39 ГБ


Начать новую тему Ответить на тему  [ 1 сообщение ] 




Для Мосгорсуда, Роскомнадзора и рекламодателей:: mosgorsud-torrent[собачка]yandex.ru