Торрент файл
скачать торрент магнет ссылка Добавлен: 10 янв 2012, 19:47
Размер: 703.98 МБ
Сидеров: 85
Личеров: 9
Автор

СообщениеДобавлено: 10 янв 2012, 19:47 

Не в сети
Супермодератор
Аватара пользователя
Дата регистрации:
11 апр 2010, 18:10
Спасибо: 5802 / 7
Сообщения: 56779
Мартовские иды / The Ides of March


Перевод: Любительский (одноголосый)
Субтитры: Отсутствуют
Формат: DVDScreener, AVI, XviD, AC3
Страна: США
Режиссер: Джордж Клуни
Жанр: драма
Продолжительность: 01:41:07
Год выпуска: 2011
В ролях: Райан Гослинг, Джордж Клуни, Филип Сеймур Хоффман, Пол Джаматти, Мариса Томей, Джеффри Райт, Ивэн Рэйчел Вуд, Макс Мингелла, Лоурен Мэй Шафер, Дэнни Муни
Описание: В фильме рассказывается об избирательной кампании Говарда Дина, проводившейся во время первичных выборов кандидата на пост президента США от демократической партии в 2004 году.



Видео: 640x272 (2,35:1), 23,976 fps, XviD MPEG-4 Visual ~836 kbps avg, 0.200 bit/pixel
Аудио: 48,000 kHz, Audio Coding 3, 2 ch, ~128.00 kbps avg


Общее
Полное имя: Martovskie_idy.avi
Формат: AVI
Формат/Информация: Audio Video Interleave
Размер файла: 704 Мбайт
Продолжительность: 1 ч. 41 м.
Общий поток: 973 Кбит/сек
Программа кодирования: VirtualDubMod 1.5.10.2 (build 2540/release)
Библиотека кодирования: VirtualDubMod build 2540/release

Видео
Идентификатор: 0
Формат: MPEG-4 Visual
Профиль формата: Simple@L3
Параметр BVOP формата: Нет
Параметр QPel формата: Нет
Параметр GMC формата: Без точки перехода
Параметр матрицы формата: Default (H.263)
Идентификатор кодека: XVID
Идентификатор кодека/Подсказка: XviD
Продолжительность: 1 ч. 41 м.
Битрейт: 836 Кбит/сек
Ширина: 640 пикселей
Высота: 272 пикселя
Соотношение сторон: 2,35:1
Частота кадров: 23,976 кадра/сек
Цветовое пространство: YUV
Субдискретизация насыщенности: 4:2:0
Битовая глубина: 8 бит
Тип развёртки: Прогрессивная
Метод сжатия: С потерями
Бит/(Пиксели*Кадры): 0.200
Размер потока: 605 Мбайт (86%)
Библиотека кодирования: XviD 1.1.2 (UTC 2006-11-01)

Аудио
Идентификатор: 1
Формат: AC-3
Формат/Информация: Audio Coding 3
Расширение режима: CM (complete main)
Идентификатор кодека: 2000
Продолжительность: 1 ч. 41 м.
Вид битрейта: Постоянный
Битрейт: 128 Кбит/сек
Каналы: 2 канала
Расположение каналов: Front: L R
Частота: 48,0 КГц
Битовая глубина: 16 бит
Метод сжатия: С потерями
Размер потока: 92,6 Мбайт (13%)
Выравнивание: Соединение по промежуткам
Продолжительность промежутка: 42мс. (1,00 видеокадр)
Время предзагрузки промежутка: 512мс.








Поделиться:




реклама партнёра


Вернуться к началу
 Профиль Отправить личное сообщение  
 
   Похожие торренты   Автор   Торрент   Размер 
В этой теме нет новых непрочитанных сообщений. Ides Of Gemini - Constantinople [2012, Experimental, Sludge Metal, Female Vocals, MP3]

PriZraK

0 | 1

97.79 МБ

В этой теме нет новых непрочитанных сообщений. Ides Of Gemini - Old World New Wave [2014, Doom Metal, Psychedelic Occult Rock, MP3]

PriZraK

1 | 5

88.64 МБ

В этой теме нет новых непрочитанных сообщений. Demonaz - March Of The Norse (Limited Edition) [2011, Black Metal, MP3]

PriZraK

0 | 1

91.04 МБ

В этой теме нет новых непрочитанных сообщений. The Approach & The Execution - The Blood March [2011,Progressive Power,Melodic Death Metal,MP3]

PriZraK

0 | 1

113.41 МБ

В этой теме нет новых непрочитанных сообщений. Легионеры / Иди вперед или умри / March or Die [драма, мелодрама, приключения, военный, 1977] HDRip, Mvo+Dvo

salma3

101 | 16

1.45 ГБ

В этой теме нет новых непрочитанных сообщений. Легионеры / Иди вперед или умри / March or Die [драма, мелодрама, приключения, военный, 1977] BDRip 720p, Mvo+Dvo

salma3

146 | 27

5.51 ГБ

В этой теме нет новых непрочитанных сообщений. FireForce - March On [2011, Heavy Metal,Power Metal, MP3]

PriZraK

0 | 1

115.71 МБ


Начать новую тему Ответить на тему  [ 1 сообщение ] 




Для Мосгорсуда, Роскомнадзора и рекламодателей:: mosgorsud-torrent[собачка]yandex.ru