Торрент файл
скачать торрент магнет ссылка Добавлен: 10 янв 2012, 19:47
Размер: 1.34 ГБ
Сидеров: 256
Личеров: 13
Автор

СообщениеДобавлено: 10 янв 2012, 19:47 

Не в сети
Супермодератор
Аватара пользователя
Дата регистрации:
11 апр 2010, 18:10
Спасибо: 5798 / 7
Сообщения: 56779
[b]Агент Джонни Инглиш: Перезагрузка / Johnny English Reborn[/b]


Перевод: Профессиональный (полное дублирование)
Cубтитры: Отсуствуют
Формат: TeleSynch, AVI, XviD, MP3
Страна: США, Франция, Великобритания
Режиссер: Оливер Паркер
Жанр: боевик, комедия, приключения
Продолжительность: 01:34:52
Год выпуска: 2011
В ролях: Роуэн Эткинсон, Джиллиан Андерсон, Доминик Уэст, Розамунд Пайк, Дэниэл Калуя, Ричард Шифф, Бен Миллер, Стивен Кэмпбелл Мур, Кристина Чонг, Жозефин Де Ла Буме
Описание: Действие фильма разворачивается через 8 лет после событий предшествующего фильма и с тех пор карьера сэра Джонни Инглиша ухудшается. За 5 лет до начала фильма его направили с заданием в Мозамбик, но миссия пошла ужасно плохо. С тех пор он живёт в пещере в горах Тибета, прячась ото всех из-за стыда, сожалений и обвинений в провале миссии.

Фильм начинается, когда герой находится на крайне низком моральном уровне, пока ему не дают ещё один шанс. Британская разведка МИ-7 снова нуждается в нём и ей надо вернуть агента, чтобы тот сорвал заговор группы киллеров, планирующих убить китайского премьер-министра.




Доп. информация: Бюджет $45 000 000
Видео: 720x304 (2,35:1), 25 fps, XviD MPEG-4 Visual ~1889 kbps avg, 0.35 bit/pixel
Аудио: 48 kHz, MPEG Layer 3, 2 ch, ~128.00 kbps avg



Общее
Полное имя: Agent_Dzhonni_Inglish_Perezagruzka_[tfile.ru].avi
Формат: AVI
Формат/Информация: Audio Video Interleave
Размер файла: 1,34 Гбайт
Продолжительность: 1 ч. 34 м.
Общий поток: 2026 Кбит/сек
Программа кодирования: VirtualDubMod 1.5.4.1 (build 2178/release)
Библиотека кодирования: VirtualDub build 30009/release

Видео
Идентификатор: 0
Формат: MPEG-4 Visual
Профиль формата: Advanced Simple@L5
Параметр BVOP формата: 2
Параметр QPel формата: Нет
Параметр GMC формата: Без точки перехода
Параметр матрицы формата: Default (H.263)
Режим смешивания: Сжатый битовый поток
Идентификатор кодека: XVID
Идентификатор кодека/Подсказка: XviD
Продолжительность: 1 ч. 34 м.
Битрейт: 1889 Кбит/сек
Ширина: 720 пикселей
Высота: 304 пикселя
Соотношение сторон: 2,35:1
Частота кадров: 25,000 кадров/сек
Цветовое пространство: YUV
Субдискретизация насыщенности: 4:2:0
Битовая глубина: 8 бит
Тип развёртки: Прогрессивная
Метод сжатия: С потерями
Бит/(Пиксели*Кадры): 0.345
Размер потока: 1,25 Гбайт (93%)
Библиотека кодирования: XviD 1.2.1 (UTC 2008-12-04)

Аудио
Идентификатор: 1
Формат: MPEG Audio
Версия формата: Version 1
Профиль формата: Layer 3
Режим: Joint stereo
Расширение режима: MS Stereo
Идентификатор кодека: 55
Идентификатор кодека/Подсказка: MP3
Продолжительность: 1 ч. 34 м.
Вид битрейта: Постоянный
Битрейт: 128 Кбит/сек
Каналы: 2 канала
Частота: 48,0 КГц
Метод сжатия: С потерями
Размер потока: 86,9 Мбайт (6%)
Выравнивание: Разделение по промежуткам
Продолжительность промежутка: 40мс. (1,00 видеокадр)
Время предзагрузки промежутка: 500мс.













Поделиться:




реклама партнёра


Вернуться к началу
 Профиль Отправить личное сообщение  
 
   Похожие торренты   Автор   Торрент   Размер 
В этой теме нет новых непрочитанных сообщений. Беги, Джонни / Bhaag Johnny [Боевик, триллер, 2015] DVDRip, Mvo [SDI Media]

salma3

39 | 8

1.37 ГБ

В этой теме нет новых непрочитанных сообщений. Джонни, будь хорошим / Johnny Be Good [Комедия, 1988] HDTVRip, Dvo

salma3

18 | 4

1.45 ГБ

В этой теме нет новых непрочитанных сообщений. Джонни-Зубочистка / Johnny Stecchino [комедия, 1991] BDRip 720p, Mvo

salma3

52 | 4

6.94 ГБ

В этой теме нет новых непрочитанных сообщений. Агент Картер / Agent Carter (Сезон 1-2, Серия 1-18 из 18) (Луис Д'Эспозито, Питер Лето) [2015-2016 , Фантастика, боевик, приключения, криминал, драма , WEB-DLRip-AVC 1080p] [MVO] [LostFilm , Nevafilm , English] + [Subs Rus,ENG]

Враг Нароода

0 | 0

32.66 ГБ

В этой теме нет новых непрочитанных сообщений. Агент Коди Бэнкс / Agent Cody Banks [Комедия, боевик, приключения, 2003] BDRemux 1080p, Dub

salma3

27 | 26

18.49 ГБ

В этой теме нет новых непрочитанных сообщений. Агент Коди Бэнкс / Agent Cody Banks [Комедия, боевик, приключения, фантастика, 2003] DVD9, Dub+Dvo+Sub

salma3

5 | 6

7.86 ГБ

В этой теме нет новых непрочитанных сообщений. Агент Коди Бэнкс / Agent Cody Banks [Комедия, боевик, приключения, 2003] BDRip 720p, Dub

salma3

37 | 30

4.84 ГБ


Начать новую тему Ответить на тему  [ 1 сообщение ] 




Для Мосгорсуда, Роскомнадзора и рекламодателей:: mosgorsud-torrent[собачка]yandex.ru