Торрент файл
скачать торрент магнет ссылка Добавлен: 10 янв 2012, 19:46
Размер: 696.99 МБ
Сидеров: 92
Личеров: 8
Автор

СообщениеДобавлено: 10 янв 2012, 19:46 

Не в сети
Супермодератор
Аватара пользователя
Дата регистрации:
11 апр 2010, 18:10
Спасибо: 5960 / 7
Сообщения: 56765
[b]Несущий бурю / Weather Wars[/b]


Перевод: Профессиональный (многоголосый, закадровый)
Cубтитры: Отсуствуют
Формат: DVDRip, AVI, XviD, MP3
Страна: США
Режиссер: Тодор Чапканов
Жанр: фантастика
Продолжительность: 01:22:37
Год выпуска: 2011
В ролях: Джейсон Лондон, Уэс Браун, Эрин Кехилл, Стейси Кич, Стэнтон Баррет, Джесси Де Луна
Описание: Серия внезапных погодных аномалий вокруг Вашингтона объединяет двух братьев — сыновей известного климатолога, не видевшихся много лет. Взявшись за расследование, братья узнают шокирующие подробности гибели врагов их отца от невероятного погодного явления…

Видео: 608x352 (4:2:0), 25 fps, XviD MPEG-4 Visual ~1058 kbps avg, 0.198 bit/pixel
Аудио: 48 kHz, MPEG Layer 3, 2 ch, ~112.00 kbps avg
Общее
Полное имя: D:\!!! Загрузки\weather_wars.avi
Формат: AVI
Формат/Информация: Audio Video Interleave
Размер файла: 697 Мбайт
Продолжительность: 1 ч. 22 м.
Общий поток: 1179 Кбит/сек
Программа кодирования: VirtualDubMod 1.5.10.2 (build 2542/release)
Библиотека кодирования: VirtualDubMod build 2542/release

Видео
Идентификатор: 0
Формат: MPEG-4 Visual
Профиль формата: Advanced Simple@L5
Параметр BVOP формата: 1
Параметр QPel формата: Нет
Параметр GMC формата: Без точки перехода
Параметр матрицы формата: Выборочная
Идентификатор кодека: XVID
Идентификатор кодека/Подсказка: XviD
Продолжительность: 1 ч. 22 м.
Битрейт: 1058 Кбит/сек
Ширина: 608 пикселей
Высота: 352 пикселя
Соотношение сторон: 16:9
Частота кадров: 25,000 кадров/сек
Цветовое пространство: YUV
Субдискретизация насыщенности: 4:2:0
Битовая глубина: 8 бит
Тип развёртки: Прогрессивная
Метод сжатия: С потерями
Бит/(Пиксели*Кадры): 0.198
Размер потока: 625 Мбайт (90%)
Библиотека кодирования: XviD 1.2.1 (UTC 2008-12-04)

Аудио
Идентификатор: 1
Формат: MPEG Audio
Версия формата: Version 1
Профиль формата: Layer 3
Режим: Joint stereo
Расширение режима: MS Stereo
Идентификатор кодека: 55
Идентификатор кодека/Подсказка: MP3
Продолжительность: 1 ч. 22 м.
Вид битрейта: Постоянный
Битрейт: 112 Кбит/сек
Каналы: 2 канала
Частота: 48,0 КГц
Метод сжатия: С потерями
Задержка видео: 8 мс.
Размер потока: 66,1 Мбайт (9%)
Выравнивание: Разделение по промежуткам
Продолжительность промежутка: 40мс. (1,00 видеокадр)
Время предзагрузки промежутка: 500мс.
















Поделиться:




реклама партнёра


Вернуться к началу
 Профиль Отправить личное сообщение  
 
   Похожие торренты   Автор   Торрент   Размер 
В этой теме нет новых непрочитанных сообщений. Приключения викингов / Viking Quest (Тодор Чапканов) [2014, фэнтези, боевик, HDRip] mvo

Nickolas3435

245 | 13

743.96 МБ

В этой теме нет новых непрочитанных сообщений. Межзвездные войны / Interstellar Wars [фантастика, 2016] DVDRip, Mvo

salma3

387 | 91

1.37 ГБ

В этой теме нет новых непрочитанных сообщений. Войны роботов / Robot Wars / Kill Box [фантастика, 2016] WEB-DLRip, Mvo

salma3

453 | 285

1.37 ГБ

В этой теме нет новых непрочитанных сообщений. Дорожные войны / Road Wars [фантастика, боевик, 2015] HDRip, Avo

salma3

90 | 7

1.37 ГБ

В этой теме нет новых непрочитанных сообщений. Война Дронов / Drone Wars [фантастика, боевик, триллер, 2016] HDRip, Mvo

salma3

2083 | 582

1.37 ГБ

В этой теме нет новых непрочитанных сообщений. Война Дронов / Drone Wars [Фантастика, боевик, триллер, 2016] ВDRip 720р, Mvo

salma3

139 | 33

3.37 ГБ

В этой теме нет новых непрочитанных сообщений. Галактическая война / Farscape: The Peacekeeper Wars [фантастика, боевик, драма, 2004] BDRip 720p, Dvo

salma3

35 | 11

8.3 ГБ


Начать новую тему Ответить на тему  [ 1 сообщение ] 




Для Мосгорсуда, Роскомнадзора и рекламодателей:: mosgorsud-torrent[собачка]yandex.ru