Торрент файл
скачать торрент магнет ссылка Добавлен: 10 янв 2012, 19:41
Размер: 1.45 ГБ
Сидеров: 150
Личеров: 14
Автор

СообщениеДобавлено: 10 янв 2012, 19:41 

Не в сети
Супермодератор
Аватара пользователя
Дата регистрации:
11 апр 2010, 18:10
Спасибо: 5960 / 7
Сообщения: 56765
11-11-11 / 11-11-11

«Ничего изменить нельзя... теперь всем точно ... !»

Перевод: Профессиональный (полное дублирование) [лицензия]
Субтитры: отсутствуют
Формат: HDRip-AVC, MKV, H.264, AC3

Страна: США, Испания
Режиссер: Даррен Линн Боусман
Жанр: ужасы, триллер

Продолжительность: 01:32:23
Год выпуска: 2011

В ролях: Тимоти Гиббс, Майкл Лэндис, Дэнис Рафтер, Венди Гленн, Луис Солер, Брендан Прайс, Лоло Херреро, Монтсеррат Альковерро, Кельвин Гилмор, Саломе Хименес

Описание: В центре событий известный писатель по имени Джозеф Крон, потерявший в результате несчастного случая жену и ребенка. Чтобы оправиться от трагедии, он едет в Европу, в Испанию, где живет его брат Самюэль и находящийся при смерти отец Ричард. Но судьба продолжает преследовать Джозефа, и все события оказываются мистическим образом связаны с числом 11. Джозеф становится одержим этим числом. Проведя расследование, он выясняет, что 11.11.11 произойдет некое событие, информация о котором зашифрована в молитвенных книгах разных религий мира. Вскоре он понимает, что 11.11.11 — это ПРЕДУПРЕЖДЕНИЕ.







Видео: 720x296 (2.40:1), 25 fps, AVC(x264) High@L4.1 ~1866 kbps avg, 0.35 bit/pixel
Аудио: 48 kHz, AC3 Dolby Digital, 3/2 (L,C,R,l,r) + LFE ch, ~384 kbps

Релиз-Группа:

Рип от:TswetkOFF



General
Unique ID: 199383083790581378735307093793342264704 (0x95FFC8FF6FCCBF78B2F5F7C0F6409580)
Complete name: D:\Films\11_11_11_[tfile.ru].mkv
Format: Matroska
File size: 1.45 GiB
Duration: 1h 32mn
Overall bit rate: 2 253 Kbps
Encoded date: UTC 2011-12-14 15:59:37
Writing application: mkvmerge v4.6.0 ('Still Crazy After All These Years') сборка от Apr1 2011 21:01:49
Writing library: libebml v1.2.0 + libmatroska v1.1.0

Video
ID: 1
Format: AVC
Format/Info: Advanced Video Codec
Format profile: High@L4.1
Format settings, CABAC: Yes
Format settings, ReFrames: 4 frames
Codec ID: V_MPEG4/ISO/AVC
Duration: 1h 32mn
Bit rate: 1 866 Kbps
Width: 720 pixels
Height: 296 pixels
Display aspect ratio: 2.40:1
Frame rate: 25.000 fps
Color space: YUV
Chroma subsampling: 4:2:0
Bit depth: 8 bits
Scan type: Progressive
Bits/(Pixel*Frame): 0.350
Stream size: 1.18 GiB (81%)
Writing library: x264 core 115 r1937 aa21558
Encoding settings: cabac=1 / ref=3 / deblock=1:0:0 / analyse=0x3:0x113 / me=hex / subme=7 / psy=1 / psy_rd=1.00:0.00 / mixed_ref=1 / me_range=16 / chroma_me=1 / trellis=1 / 8x8dct=1 / cqm=0 / deadzone=21,11 / fast_pskip=1 / chroma_qp_offset=-2 / threads=3 / sliced_threads=0 / nr=0 / decimate=1 / interlaced=0 / bluray_compat=0 / constrained_intra=0 / bframes=3 / b_pyramid=2 / b_adapt=1 / b_bias=0 / direct=1 / weightb=1 / open_gop=0 / weightp=2 / keyint=250 / keyint_min=25 / scenecut=40 / intra_refresh=0 / rc_lookahead=40 / rc=2pass / mbtree=1 / bitrate=1866 / ratetol=1.0 / qcomp=0.60 / qpmin=0 / qpmax=69 / qpstep=4 / cplxblur=20.0 / qblur=0.5 / ip_ratio=1.40 / aq=1:1.00

Audio
ID: 2
Format: AC-3
Format/Info: Audio Coding 3
Mode extension: CM (complete main)
Codec ID: A_AC3
Duration: 1h 32mn
Bit rate mode: Constant
Bit rate: 384 Kbps
Channel(s): 6 channels
Channel positions: Front: L C R, Side: L R, LFE
Sampling rate: 48.0 KHz
Bit depth: 16 bits
Compression mode: Lossy
Stream size: 254 MiB (17%)








Поделиться:




реклама партнёра


Вернуться к началу
 Профиль Отправить личное сообщение  
 
   Похожие торренты   Автор   Торрент   Размер 
В этой теме нет новых непрочитанных сообщений. Город монстров / Tales of Halloween (Даррен Линн Боусман, Аксель Кэролин, Адам Гираш) [ужасы, 2015] HDRip, dub [Чистый звук]

Dracon

9069 | 664

1.45 ГБ

В этой теме нет новых непрочитанных сообщений. Город монстров / Tales of Halloween (Даррен Линн Боусман, Аксель Кэролин, Адам Гираш) [ужасы, 2015] BDRip 720p, dub [Чистый звук]

Dracon

1481 | 57

3.99 ГБ

В этой теме нет новых непрочитанных сообщений. Город монстров / Tales of Halloween (Даррен Линн Боусман, Аксель Кэролин, Адам Гираш) [ужасы, 2015] BDRip 1080p, dub [Чистый звук]

Dracon

649 | 58

8.51 ГБ

В этой теме нет новых непрочитанных сообщений. Детка / Laggies (Линн Шелтон) [мелодрама, комедия, 2014] HDRip, Dub [iTunes]

Dracon

111 | 6

1.37 ГБ

В этой теме нет новых непрочитанных сообщений. Подземелье / Underground [ужасы, триллер, 2011] HDRip, Mvo

salma3

119 | 23

1.37 ГБ

В этой теме нет новых непрочитанных сообщений. Хлебные крошки / BreadCrumbs [Ужасы, триллер, 2011] HDRip, Dvo

salma3

97 | 32

742.39 МБ

В этой теме нет новых непрочитанных сообщений. Паранормальное явление 3 / Paranormal Activity 3 [ужасы, триллер, 2011] HDRip-AVC, Dub

salma3

22 | 4

745.55 МБ


Начать новую тему Ответить на тему  [ 1 сообщение ] 




Для Мосгорсуда, Роскомнадзора и рекламодателей:: mosgorsud-torrent[собачка]yandex.ru