Торрент файл
скачать торрент магнет ссылка Добавлен: 10 янв 2012, 19:41
Размер: 1.46 ГБ
Сидеров: 52
Личеров: 6
Автор

СообщениеДобавлено: 10 янв 2012, 19:41 

Не в сети
Супермодератор
Аватара пользователя
Дата регистрации:
11 апр 2010, 18:10
Спасибо: 5801 / 7
Сообщения: 56779
Профессионал / Killer Elite


Слоган: «May the Best Man Live»
Перевод: Профессиональный (полное дублирование) [Лицензия]
Субтитры: отсутствуют
Формат: DVDRip-AVC, MKV, H.264, AC3

Страна: США, Австралия

Режиссер: Гэри МакКендри
Жанр: боевик, триллер
Продолжительность: 01:51:32

Год выпуска: 2011

В ролях: Джейсон Стэтхэм, Клайв Оуэн, Роберт Де Ниро, Ивонн Страховски, Доминик Пурселл, Адевале Акиннуойе-Агбадже, Майкл Дорман, Грант Боулер, Бен Мендельсон, Кристи Барнс Каллен

Описание: Бывшему бойцу британских силовых структур приходится забыть о тихой размеренной жизни отставника, когда его лучший друг оказывается в опасности.



Видео: 1024x576@720x576 (2.40:1), 25.000 fps, AVC (х264) High@L4.1, ~ 1389 Kbps, 0.134 bit/pixel

Аудио: 48 kHz, AC3 Dolby Digital, 3/2 (L,C,R,l,r) + LFE ch, ~448 kbps avg



C:\Documents and Settings\User\Мои документы\Kille.Elite.2011.Dc1.DVDRip-AVC.mkv
General
Complete name : C:\Documents and Settings\User\Мои документы\Kille.Elite.2011.Dc1.DVDRip-AVC.mkv
Format : Matroska
File size : 1.46 GiB
Duration : 1h 51mn
Overall bit rate : 1 874 Kbps
Encoded date : UTC 2011-12-20 02:25:32
Writing application : mkvmerge v5.0.1 ('Es ist Sommer') built on Nov6 2011 16:23:40
Writing library : libebml v1.2.2 + libmatroska v1.3.0
Video #1
ID : 1
Format : AVC
Format/Info : Advanced Video Codec
Format profile : High@L4.1
Format settings, CABAC : Yes
Format settings, ReFrames : 16 frames
Muxing mode : Container profile=Unknown@4.1
Codec ID : V_MPEG4/ISO/AVC
Duration : 1h 51mn
Bit rate : 1 389 Kbps
Nominal bit rate : 1 425 Kbps
Width : 720 pixels
Height : 576 pixels
Display aspect ratio : 16:9
Frame rate mode : Variable
Frame rate : 25.000 fps
Standard : PAL
Resolution : 8 bits
Colorimetry : 4:2:0
Scan type : Progressive
Bits/(Pixel*Frame) : 0.134
Stream size : 1.08 GiB (74%)
Writing library : x264 core 119 r2106 07efeb4
Encoding settings : cabac=1 / ref=16 / deblock=1:-2:-1 / analyse=0x3:0x113 / me=umh / subme=11 / psy=1 / psy_rd=1.10:0.15 / mixed_ref=1 / me_range=32 / chroma_me=1 / trellis=2 / 8x8dct=1 / cqm=0 / deadzone=21,11 / fast_pskip=1 / chroma_qp_offset=-3 / threads=12 / sliced_threads=0 / nr=0 / decimate=1 / interlaced=0 / bluray_compat=0 / constrained_intra=0 / bframes=8 / b_pyramid=2 / b_adapt=2 / b_bias=0 / direct=3 / weightb=1 / open_gop=0 / weightp=2 / keyint=250 / keyint_min=25 / scenecut=40 / intra_refresh=0 / rc_lookahead=80 / rc=2pass / mbtree=1 / bitrate=1425 / ratetol=1.0 / qcomp=0.60 / qpmin=0 / qpmax=69 / qpstep=4 / cplxblur=20.0 / qblur=0.5 / ip_ratio=1.40 / aq=2:0.70
Audio #2
ID : 2
Format : AC-3
Format/Info : Audio Coding 3
Format_Settings_ModeExtension : CM (complete main)
Codec ID : A_AC3
Duration : 1h 51mn
Bit rate mode : Constant
Bit rate : 448 Kbps
Channel(s) : 6 channels
Channel positions : Front: L C R, Side: L R, LFE
Sampling rate : 48.0 KHz
Stream size : 357 MiB (24%)










Поделиться:




реклама партнёра


Вернуться к началу
 Профиль Отправить личное сообщение  
 
   Похожие торренты   Автор   Торрент   Размер 
В этой теме нет новых непрочитанных сообщений. Охотник на акул / Shark Killer [Боевик, триллер, 2015] DVDRip, Avo

salma3

2595 | 732

1.45 ГБ

В этой теме нет новых непрочитанных сообщений. Убийца в социальной сети / The Craigslist Killer [триллер, драма, криминал, 2011] DVDRip, Dvo

salma3

2 | 2

695.27 МБ

В этой теме нет новых непрочитанных сообщений. Скорпион / Scorpion [01x01-13 из 22] (Гэри Фледер, Дуайт Х. Литтл, Бобби Рот)[2014, триллер, драма, боевик, WEB-DLRip | BaibaKo]

Nickolas3435

28 | 25

7.26 ГБ

В этой теме нет новых непрочитанных сообщений. Скорпион / Scorpion [02х01-15 из 22] (Гэри Фледер, Дуайт Х. Литтл, Бобби Рот) [2015, триллер, драма, боевик, WEB-DLRip | BaibaKo]

Dracon

25 | 99

7.57 ГБ

В этой теме нет новых непрочитанных сообщений. Скорпион / Scorpion [01x01-05 из 13] (Гэри Фледер, Дуайт Х. Литтл, Бобби Рот) [2014, триллер, драма, боевик, WEB-DL 720p | IdeaFilm]

Nickolas3435

15 | 28

7.55 ГБ

В этой теме нет новых непрочитанных сообщений. Профессионал [01-16 из 16] [Боевик, 2014] SATRip

Dracon

15 | 5

8.73 ГБ

В этой теме нет новых непрочитанных сообщений. Скорпион / Scorpion / 2 сезон 1-24 серии из 24 (Гэри Фледер, Дуайт Х. Литтл, Бобби Рот) [2015, триллер, драма, боевик, WEB-DLRip | BaibaKo]

Nickolas3435

84 | 70

11.97 ГБ


Начать новую тему Ответить на тему  [ 1 сообщение ] 




Для Мосгорсуда, Роскомнадзора и рекламодателей:: mosgorsud-torrent[собачка]yandex.ru