Торрент файл
скачать торрент магнет ссылка Добавлен: 10 янв 2012, 19:40
Размер: 1.5 ГБ
Сидеров: 74
Личеров: 7
Автор

СообщениеДобавлено: 10 янв 2012, 19:40 

Не в сети
Супермодератор
Аватара пользователя
Дата регистрации:
11 апр 2010, 18:10
Спасибо: 5799 / 7
Сообщения: 56779
[b]История дельфина / Dolphin Tale[/b]


Перевод: Профессиональный (полное дублирование)
Субтитры: отсутствуют
Формат: HDRip-AVC, MKV, H.264, AC3

Страна:США

Режиссер: Чарльз Мартин Смит
Жанр: драма, семейный
Продолжительность: 01:52:41
Год выпуска: 2011

В ролях: Гарри Конник мл., Эшли Джадд, Натан Гэмбл, Крис Кристофферсон, Кози Цуельсдорфф, Морган Фриман, Остин Стоуэлл, Фрэнсис Стернхаген, Остин Хигсмит, Бетси Лэндин.

Описание: Пронзительная история дружбы между мальчиком и дельфином, который потерял свой хвост в ловушке для крабов



Видео: 1024x432 (2.35:1), 23.976 fps, AVC MPEG-4 High@L4.1 ~1536 kbps avg, 0.145 bit/pixel
Аудио: 48 kHz, AC3 Dolby Digital, 3/2 (L,C,R,l,r) + LFE ch, ~384 kbps avg

Релиз группы

Рип от: __


General
Unique ID: 175568781643959896448525173317722444657 (0x84155140425F8222973B0E37CE5C1371)
Complete name: D:\Мои рипы\Istorija.delfina.2011.D.HDRip.mkv
Format: Matroska
Format version: Version 2
File size: 1.50 GiB
Duration: 1h 52mn
Overall bit rate: 1 901 Kbps
Movie name: Dolphin.Tale.S.I.D
Encoded date: UTC 2011-12-20 22:59:16
Writing application: mkvmerge v2.9.8 ('C'est le bon') built on Aug 13 2009 12:49:06
Writing library: libebml v0.7.7 + libmatroska v0.8.1

Video
ID: 1
Format: AVC
Format/Info: Advanced Video Codec
Format profile: High@L4.1
Format settings, CABAC: Yes
Format settings, ReFrames: 8 frames
Codec ID: V_MPEG4/ISO/AVC
Duration: 1h 52mn
Bit rate: 1 536 Kbps
Width: 1 024 pixels
Height: 432 pixels
Display aspect ratio: 2.35:1
Frame rate: 23.976 fps
Color space: YUV
Chroma subsampling: 4:2:0
Bit depth: 8 bits
Scan type: Progressive
Bits/(Pixel*Frame): 0.145
Stream size: 1.16 GiB (78%)
Title: RG Films Tfile
Writing library: x264 core 119 r2106 07efeb4
Encoding settings: cabac=1 / ref=8 / deblock=1:-1:-1 / analyse=0x3:0x111 / me=umh / subme=0 / psy=1 / psy_rd=1.00:0.10 / mixed_ref=1 / me_range=16 / chroma_me=1 / trellis=2 / 8x8dct=1 / cqm=0 / deadzone=21,11 / fast_pskip=0 / chroma_qp_offset=-1 / threads=6 / sliced_threads=0 / nr=0 / decimate=1 / interlaced=0 / bluray_compat=0 / constrained_intra=0 / bframes=8 / b_pyramid=2 / b_adapt=2 / b_bias=0 / direct=1 / weightb=1 / open_gop=0 / weightp=2 / keyint=250 / keyint_min=23 / scenecut=40 / intra_refresh=0 / rc_lookahead=40 / rc=abr / mbtree=1 / bitrate=1536 / ratetol=1.0 / qcomp=0.60 / qpmin=0 / qpmax=69 / qpstep=4 / ip_ratio=1.40 / aq=1:1.00
Language: English
Default: Yes
Forced: No

Audio
ID: 2
Format: AC-3
Format/Info: Audio Coding 3
Mode extension: CM (complete main)
Codec ID: A_AC3
Duration: 1h 52mn
Bit rate mode: Constant
Bit rate: 384 Kbps
Channel(s): 6 channels
Channel positions: Front: L C R, Side: L R, LFE
Sampling rate: 48.0 KHz
Bit depth: 16 bits
Compression mode: Lossy
Stream size: 309 MiB (20%)
Title: Дубляж
Language: Russian
Default: Yes
Forced: No








Поделиться:




реклама партнёра


Вернуться к началу
 Профиль Отправить личное сообщение  
 
   Похожие торренты   Автор   Торрент   Размер 
В этой теме нет новых непрочитанных сообщений. История дельфина 2 / Dolphin Tale 2 [Драма, семейный, 2014] HDRip, dub [Звук с TS]

Dracon

208 | 13

1.37 ГБ

В этой теме нет новых непрочитанных сообщений. История дельфина 2 / Dolphin Tale 2 [Драма, семейный, 2014] HDRip, Dub [iTunes]

Dracon

328 | 12

1.46 ГБ

В этой теме нет новых непрочитанных сообщений. История дельфина 2 / Dolphin Tale 2 [Драма, семейный, 2014] WEBRip, Dub [Звук с TS]

Dracon

388 | 9

1.38 ГБ

В этой теме нет новых непрочитанных сообщений. История дельфина 2 / Dolphin Tale 2 [драма, семейный, 2014] BDRip 720p, Dub+Sub [Лицензия]

Dracon

0 | 2

6.28 ГБ

В этой теме нет новых непрочитанных сообщений. История дельфина 2 / Dolphin Tale 2 [Драма, семейный, 2014] BDRip 1080p, Dub [iTunes]

Dracon

14 | 9

8.2 ГБ

В этой теме нет новых непрочитанных сообщений. История дельфина 2 / Dolphin Tale 2 [драма, семейный, 2014] BDRip 720p, Dub [iTunes]

Dracon

11 | 4

5.29 ГБ

В этой теме нет новых непрочитанных сообщений. Новые миры / New Worlds [S01] (Чарльз Мартин) [2014, История, HDTVRip | BaibaKo]

Nickolas3435

136 | 17

3.09 ГБ


Начать новую тему Ответить на тему  [ 1 сообщение ] 




Для Мосгорсуда, Роскомнадзора и рекламодателей:: mosgorsud-torrent[собачка]yandex.ru