Торрент файл
скачать торрент магнет ссылка Добавлен: 10 янв 2012, 19:39
Размер: 2.08 ГБ
Сидеров: 537
Личеров: 20
Автор

СообщениеДобавлено: 10 янв 2012, 19:39 

Не в сети
Супермодератор
Аватара пользователя
Дата регистрации:
11 апр 2010, 18:10
Спасибо: 5802 / 7
Сообщения: 56779
[b]Гениальный папа / Father of Invention[/b]


Перевод: Профессиональный (полное дублирование)
Субтитры: отсутствуют
Формат: HDRip-AVC, MKV, H.264, AC3

Страна:США

Режиссер: Трент Купер
Жанр: драма, комедия
Продолжительность: 01:33:13
Год выпуска: 2010

В ролях: Кевин Спейси, Камилла Белль, Джонни Ноксвил, Хэзер Грэм, Вирджиния Мэдсен, Джон Стамос, Майкл Розенбаум, Крэйг Робинсон, Джек МакГи, Одра Мари.

Описание: Роберт Аксель, эксцентричный изобретатель, считает себя настоящим гуру. Но он теряет все в один миг, когда одно из его изобретений калечит тысячи покупателей. Его ждали тюрьма и 8 лет затворничества, после Аксель готов восстановить свое имя и свою многомиллионную империю. Но пока что ему нужно уговорить свою 22-летнюю дочь пустить его к себе в дом, что бы где-то жить.



Видео: 1024x432 (2.35:1), 23.976 fps, AVC MPEG-4 High@L4.1 ~2447 kbps avg, 0.231 bit/pixel
Аудио #1: русский48 kHz, AC3 Dolby Digital, 2/0 (L, R) ch, ~384 kbps avg [Профессиональный (полное дублирование)]
Аудио #2: английский48 kHz, AC3 Dolby Digital, 3/2 (L,C,R,l,r) + LFE ch, ~384 kbps avg [оригинал]

Релиз группы

Рип от: __


General
Unique ID: 244066628561114050373554445913526256320 (0xB79D85D8A7C69985B844EBCA64DA42C0)
Complete name: D:\Мои рипы\Father.of.Invention.2010.D.HDRip.mkv
Format: Matroska
Format version: Version 2
File size: 2.08 GiB
Duration: 1h 33mn
Overall bit rate: 3 190 Kbps
Movie name: Father.of.Invention.S.I.D
Encoded date: UTC 2011-12-21 15:27:41
Writing application: mkvmerge v2.9.8 ('C'est le bon') built on Aug 13 2009 12:49:06
Writing library: libebml v0.7.7 + libmatroska v0.8.1

Video
ID: 1
Format: AVC
Format/Info: Advanced Video Codec
Format profile: High@L4.1
Format settings, CABAC: Yes
Format settings, ReFrames: 8 frames
Codec ID: V_MPEG4/ISO/AVC
Duration: 1h 33mn
Bit rate: 2 447 Kbps
Width: 1 024 pixels
Height: 432 pixels
Display aspect ratio: 2.35:1
Frame rate: 23.976 fps
Color space: YUV
Chroma subsampling: 4:2:0
Bit depth: 8 bits
Scan type: Progressive
Bits/(Pixel*Frame): 0.231
Stream size: 1.54 GiB (74%)
Title: RG Films Tfile
Writing library: x264 core 119 r2106 07efeb4
Encoding settings: cabac=1 / ref=8 / deblock=1:-1:-1 / analyse=0x3:0x111 / me=umh / subme=0 / psy=1 / psy_rd=1.00:0.10 / mixed_ref=1 / me_range=16 / chroma_me=1 / trellis=2 / 8x8dct=1 / cqm=0 / deadzone=21,11 / fast_pskip=0 / chroma_qp_offset=-1 / threads=6 / sliced_threads=0 / nr=0 / decimate=1 / interlaced=0 / bluray_compat=0 / constrained_intra=0 / bframes=8 / b_pyramid=2 / b_adapt=2 / b_bias=0 / direct=1 / weightb=1 / open_gop=0 / weightp=2 / keyint=250 / keyint_min=23 / scenecut=40 / intra_refresh=0 / rc_lookahead=40 / rc=abr / mbtree=1 / bitrate=2447 / ratetol=1.0 / qcomp=0.60 / qpmin=0 / qpmax=69 / qpstep=4 / ip_ratio=1.40 / aq=1:1.00
Language: English

Audio #1
ID: 2
Format: AC-3
Format/Info: Audio Coding 3
Mode extension: CM (complete main)
Codec ID: A_AC3
Duration: 1h 33mn
Bit rate mode: Constant
Bit rate: 384 Kbps
Channel(s): 2 channels
Channel positions: Front: L R
Sampling rate: 48.0 KHz
Bit depth: 16 bits
Compression mode: Lossy
Stream size: 256 MiB (12%)
Title: Дубляж
Language: Russian

Audio #2
ID: 3
Format: AC-3
Format/Info: Audio Coding 3
Mode extension: CM (complete main)
Codec ID: A_AC3
Duration: 1h 33mn
Bit rate mode: Constant
Bit rate: 384 Kbps
Channel(s): 6 channels
Channel positions: Front: L C R, Side: L R, LFE
Sampling rate: 48.0 KHz
Bit depth: 16 bits
Compression mode: Lossy
Stream size: 256 MiB (12%)
Title: Оригинал
Language: English








Поделиться:




реклама партнёра


Вернуться к началу
 Профиль Отправить личное сообщение  
 
   Похожие торренты   Автор   Торрент   Размер 
В этой теме нет новых непрочитанных сообщений. Гениальный папа / Father of Invention [комедия, драма, 2010] DVD5, Dub [лицензия]

salma3

9 | 5

4.15 ГБ

В этой теме нет новых непрочитанных сообщений. Отчаянный папа / Father Hood [Комедия, 1993] BDRip 720p, Mvo+Avo+Sub

salma3

111 | 30

4.75 ГБ

В этой теме нет новых непрочитанных сообщений. Самый лучший папа / World's Greatest Dad [драма, комедия, 2009] HDRip, Mvo

salma3

27 | 5

1.45 ГБ

В этой теме нет новых непрочитанных сообщений. Папа – робот / Кибернетический папа / And You Thought Your Parents Were Weird [Фантастическая комедия, 1991] VHSRip, Avo

salma3

13 | 2

1.38 ГБ

В этой теме нет новых непрочитанных сообщений. День отца / Father's Day [ужасы, боевик, комедия, 2011] HDRip, Avo

salma3

36 | 3

1.37 ГБ

В этой теме нет новых непрочитанных сообщений. Здравствуй, папа, Новый год / Daddy's Home [Комедия, 2015] HDRip, dub [чистый звук]

Dracon

6243 | 60

1.37 ГБ

В этой теме нет новых непрочитанных сообщений. Madonna - The Re-Invention World tour (live) [Поп, 2010] DVDRip

salma3

3 | 1

2.05 ГБ


Начать новую тему Ответить на тему  [ 1 сообщение ] 




Для Мосгорсуда, Роскомнадзора и рекламодателей:: mosgorsud-torrent[собачка]yandex.ru