Торрент файл
скачать торрент магнет ссылка Добавлен: 10 янв 2012, 19:38
Размер: 1.45 ГБ
Сидеров: 952
Личеров: 43
Автор

СообщениеДобавлено: 10 янв 2012, 19:38 

Не в сети
Супермодератор
Аватара пользователя
Дата регистрации:
11 апр 2010, 18:10
Спасибо: 5801 / 7
Сообщения: 56779
Резня / Carnage


Перевод: Профессиональный (полное дублирование), cубтитры: отсутствуют
Формат: DVDRip-AVC, MKV, H.264, AC3
Страна: Германия, Франция, Испания, Польша
Режиссер: Роман Полански
Жанр: драма, комедия
Продолжительность: 01:16:09
Год выпуска: 2011

В ролях: Джоди Фостер, Кейт Уинслет, Кристоф Вальц, Джон Си Райли, Элвис Полански, Элиот Бергер, Натан Риппи, Таня Лопер, Джули Адамс

Описание: История двух родительских пар, которые знакомятся после того, как их сыновья сходятся в школьной драке. При этом каждая пара оспаривает родительские навыки другой, вместо того, чтобы разглядеть собственные проблемы.



Видео: 976 x 400 (2:40:1), 25.000 fps, AVC (х264) High@L4.1, ~ 2348 Kbps, 0.241 bit/pixel
Аудио: 48 kHz, AC3 Dolby Digital, 3/2 (L,C,R,l,r) + LFE ch, ~384 kbps avg


Рип: jeenart

General
Unique ID: 229798290788507347729122118576216638758 (0xACE18A7B08DC48EF8D27D6EF9D828526)
Complete name: F:\Мои релизы\Все релизы 10\reznja_[tfile.ru].mkv
Format: Matroska
File size: 1.45 GiB
Duration: 1h 16mn
Overall bit rate: 2 734 Kbps
Encoded date: UTC 2011-12-23 09:08:11
Writing application: mkvmerge v4.6.0 ('Still Crazy After All These Years') сборка от Apr1 2011 21:01:49
Writing library: libebml v1.2.0 + libmatroska v1.1.0

Video
ID: 1
Format: AVC
Format/Info: Advanced Video Codec
Format profile: High@L4.1
Format settings, CABAC: Yes
Format settings, ReFrames: 4 frames
Codec ID: V_MPEG4/ISO/AVC
Duration: 1h 16mn
Bit rate: 2 348 Kbps
Width: 976 pixels
Height: 400 pixels
Display aspect ratio: 2.40:1
Frame rate: 25.000 fps
Color space: YUV
Chroma subsampling: 4:2:0
Bit depth: 8 bits
Scan type: Progressive
Bits/(Pixel*Frame): 0.241
Stream size: 1.22 GiB (84%)
Writing library: x264 core 115 r1937 aa21558
Encoding settings: cabac=1 / ref=3 / deblock=1:-1:-1 / analyse=0x3:0x113 / me=hex / subme=7 / psy=1 / psy_rd=1.00:0.10 / mixed_ref=1 / me_range=16 / chroma_me=1 / trellis=1 / 8x8dct=1 / cqm=0 / deadzone=21,11 / fast_pskip=1 / chroma_qp_offset=-3 / threads=6 / sliced_threads=0 / nr=0 / decimate=1 / interlaced=0 / bluray_compat=0 / constrained_intra=0 / bframes=3 / b_pyramid=2 / b_adapt=1 / b_bias=0 / direct=3 / weightb=1 / open_gop=0 / weightp=2 / keyint=250 / keyint_min=25 / scenecut=40 / intra_refresh=0 / rc_lookahead=40 / rc=2pass / mbtree=1 / bitrate=2348 / ratetol=1.0 / qcomp=0.60 / qpmin=0 / qpmax=69 / qpstep=4 / cplxblur=20.0 / qblur=0.5 / ip_ratio=1.40 / aq=1:1.00

Audio
ID: 2
Format: AC-3
Format/Info: Audio Coding 3
Mode extension: CM (complete main)
Codec ID: A_AC3
Duration: 1h 16mn
Bit rate mode: Constant
Bit rate: 384 Kbps
Channel(s): 6 channels
Channel positions: Front: L C R, Side: L R, LFE
Sampling rate: 48.0 KHz
Bit depth: 16 bits
Compression mode: Lossy
Stream size: 209 MiB (14%)











Поделиться:




реклама партнёра


Вернуться к началу
 Профиль Отправить личное сообщение  
 
   Похожие торренты   Автор   Торрент   Размер 
В этой теме нет новых непрочитанных сообщений. Carnage - Let The Carnage Begin [2011, Death Metal, MP3]

PriZraK

0 | 1

67.11 МБ

В этой теме нет новых непрочитанных сообщений. Чикагская резня / Chicago Massacre: Richard Speck [Триллер, драма, криминал, 2007] DVDRip, Dvo

salma3

67 | 4

1.37 ГБ

В этой теме нет новых непрочитанных сообщений. Haemorrhage - Hospital Carnage [2011, Goregrind, MP3]

PriZraK

0 | 1

81.07 МБ

В этой теме нет новых непрочитанных сообщений. Это не ты / Роман о романе / A Novel Romance [драма, мелодрама, комедия, 2011] HDTVRip, Mvo

salma3

59 | 4

1.42 ГБ

В этой теме нет новых непрочитанных сообщений. Рождественский роман / A Christmas Romance [драма, мелодрама, комедия, семейный, 1994] DVDRip, Dvo [НТВ]

salma3

12 | 2

1.46 ГБ

В этой теме нет новых непрочитанных сообщений. Резня женщин / Sorority Party Massacre [ужасы, детектив, комедия, 2012] HDRip, Avo

salma3

43 | 5

1.3 ГБ

В этой теме нет новых непрочитанных сообщений. Резня на пляже в Джерси / Jersey Shore Massacre [ужасы, комедия, 2014] HDRip, Avo

salma3

327 | 13

1.45 ГБ


Начать новую тему Ответить на тему  [ 1 сообщение ] 




Для Мосгорсуда, Роскомнадзора и рекламодателей:: mosgorsud-torrent[собачка]yandex.ru