Торрент файл
скачать торрент магнет ссылка Добавлен: 10 янв 2012, 19:37
Размер: 1.35 ГБ
Сидеров: 72
Личеров: 14
Автор

СообщениеДобавлено: 10 янв 2012, 19:37 

Не в сети
Супермодератор
Аватара пользователя
Дата регистрации:
11 апр 2010, 18:10
Спасибо: 5801 / 7
Сообщения: 56779
[b]Будущее / The Future[/b]


Перевод: Любительский (одноголосый)
Субтитры: Отсутствуют
Формат: DVDRip, AVI, XviD, AC3
Страна: США, Германия
Режиссер: Миранда Джулай
Жанр: драма
Продолжительность: 01:30:45
Год выпуска: 2011
В ролях: Миранда Джулай, Хамиш Линклэйтер, Дэвид Уоршофски, Изабелла Акрес, Джо Паттерлик, Анджела Тримбур, Мэри Пассери, Кэтлин Гати, Клемент фон Франкенштейн, Тонита Кастро

Описание: Когда пара решает взять бездомного кота, их жизненная перспектива меняется, буквально искажая пространство и время и проверяя их веру в себя и друг друга на прочность.



Видео: 624x352 (1.77:1), 23.976 fps, XviD MPEG-4 Visual ~1211 kbps avg, 0.23 bit/pixel
Аудио #1: Русский: 48 kHz, Audio Coding 3, 6 ch, ~448 kbps avg[Любительский (одноголосый)]
Аудио #2: Английский: 48 kHz, Audio Coding 3, 6 ch, ~448 kbps avg[Оригинал]




Общее
Полное имя: budushee.avi
Формат: AVI
Формат/Информация: Audio Video Interleave
Размер файла: 1,35 Гбайт
Продолжительность: 1 ч. 30 м.
Общий поток: 2122 Кбит/сек
Программа кодирования: VirtualDubMod 1.5.10.2 (build 2540/release)
Библиотека кодирования: VirtualDubMod build 2540/release

Видео
Идентификатор: 0
Формат: MPEG-4 Visual
Профиль формата: Advanced Simple@L5
Параметр BVOP формата: Нет
Параметр QPel формата: Нет
Параметр GMC формата: Без точки перехода
Параметр матрицы формата: Выборочная
Идентификатор кодека: XVID
Идентификатор кодека/Подсказка: XviD
Продолжительность: 1 ч. 30 м.
Битрейт: 1212 Кбит/сек
Ширина: 624 пикселя
Высота: 352 пикселя
Соотношение сторон: 16:9
Частота кадров: 23,976 кадра/сек
Цветовое пространство: YUV
Субдискретизация насыщенности: 4:2:0
Битовая глубина: 8 бит
Тип развёртки: Прогрессивная
Метод сжатия: С потерями
Бит/(Пиксели*Кадры): 0.230
Размер потока: 787 Мбайт (57%)
Библиотека кодирования: XviD 1.2.1 (UTC 2008-12-04)

Аудио #1
Идентификатор: 1
Формат: AC-3
Формат/Информация: Audio Coding 3
Расширение режима: CM (complete main)
Идентификатор кодека: 2000
Продолжительность: 1 ч. 30 м.
Вид битрейта: Постоянный
Битрейт: 448 Кбит/сек
Каналы: 6 каналов
Расположение каналов: Front: L C R, Side: L R, LFE
Частота: 48,0 КГц
Битовая глубина: 16 бит
Метод сжатия: С потерями
Размер потока: 291 Мбайт (21%)
Выравнивание: Разделение по промежуткам
Продолжительность промежутка: 42мс. (1,00 видеокадр)
Время предзагрузки промежутка: 500мс.
Язык: English

Аудио #2
Идентификатор: 2
Формат: AC-3
Формат/Информация: Audio Coding 3
Расширение режима: CM (complete main)
Идентификатор кодека: 2000
Продолжительность: 1 ч. 30 м.
Вид битрейта: Постоянный
Битрейт: 448 Кбит/сек
Каналы: 6 каналов
Расположение каналов: Front: L C R, Side: L R, LFE
Частота: 48,0 КГц
Битовая глубина: 16 бит
Метод сжатия: С потерями
Размер потока: 291 Мбайт (21%)
Выравнивание: Разделение по промежуткам
Продолжительность промежутка: 42мс. (1,00 видеокадр)
Время предзагрузки промежутка: 500мс.


















Поделиться:




реклама партнёра


Вернуться к началу
 Профиль Отправить личное сообщение  
 
   Похожие торренты   Автор   Торрент   Размер 
В этой теме нет новых непрочитанных сообщений. Между прошлым и будущим / Будущее прошедшее / Future Past [фантастика, 1987] TVRip, Mvo

salma3

1 | 0

1.43 ГБ

В этой теме нет новых непрочитанных сообщений. Назад в будущее: Трилогия / Back to the Future Trilogy [фантастика, комедия, приключения, 1985-1990] BDRip, Dub

salma3

433 | 39

4.37 ГБ

В этой теме нет новых непрочитанных сообщений. The Vines - Future Primitive [2011, Indie Rock, Alternative, MP3]

PriZraK

0 | 1

77.33 МБ

В этой теме нет новых непрочитанных сообщений. Kaiser Chiefs - The Future Is Medieval [2011, Indie Rock, MP3]

PriZraK

0 | 1

180.09 МБ

В этой теме нет новых непрочитанных сообщений. A Day With A Future Pornstar / День с Будущей Порнозвездой (Spizoo) [2015., DVDRip]

max77777

0 | 0

1.52 ГБ

В этой теме нет новых непрочитанных сообщений. Amplified Backdoor Creatures - Sick Circus [2011, Robot-Will-Future-Delay-Rock, MP3]

PriZraK

0 | 1

137.93 МБ

В этой теме нет новых непрочитанных сообщений. Angst - Шанс На Будущее [2009, Metal, Alternative, MP3]

PriZraK

0 | 2

27.22 МБ


Начать новую тему Ответить на тему  [ 1 сообщение ] 




Для Мосгорсуда, Роскомнадзора и рекламодателей:: mosgorsud-torrent[собачка]yandex.ru