Торрент файл
скачать торрент магнет ссылка Добавлен: 10 янв 2012, 19:37
Размер: 1.45 ГБ
Сидеров: 3
Личеров: 5
Автор

СообщениеДобавлено: 10 янв 2012, 19:37 

Не в сети
Супермодератор
Аватара пользователя
Дата регистрации:
11 апр 2010, 18:10
Спасибо: 5801 / 7
Сообщения: 56779
[b]Пожары / Incendies[/b]


Перевод: Любительский (двухголосый)
Субтитры: Отсутствуют
Формат: DVDRip, AVI, XviD, AC3
Страна: Канада, Франция
Режиссер: Дени Вильнёв
Жанр: драма, детектив, военный
Продолжительность: 02:10:53
Год выпуска: 2010
В ролях: Лубна Азабаль, Мелисса Дезормо-Полен, Максим Годетт, Реми Жирар, Аллен Олтмэн, Мохамед Майд, Набил Савалха, Байа Белаль
Описание: Лента повествует о путешествии близнецов — брата и сестры — на Ближний Восток, где они надеются найти своих родственников.



Видео: 720x384 (4:2:0), 23.976 fps, XviD MPEG-4 ~1133 kbps avg, 0.171 bit/pixel
Аудио: 48 kHz, AC-3, 6 ch (Front: L C R, Side: L R, LFE), ~448.00 kbps avg


Общее
Полное имя: pojary.avi
Формат: AVI
Формат/Информация: Audio Video Interleave
Размер файла: 1,45 Гбайт
Продолжительность: 2 ч. 10 м.
Общий поток: 1590 Кбит/сек
Название фильма: Pojary.2010.L2.HDRip.1400MB.KIKTEAM.NET
Режиссёр: KikTEAM
Программа кодирования: VirtualDubMod 1.5.10.2 (build 2540/release)

Видео
Идентификатор: 0
Формат: MPEG-4 Visual
Профиль формата: Advanced Simple@L5
Параметр BVOP формата: 1
Параметр QPel формата: Нет
Параметр GMC формата: Без точки перехода
Параметр матрицы формата: Default (H.263)
Режим смешивания: Сжатый битовый поток
Идентификатор кодека: XVID
Идентификатор кодека/Подсказка: XviD
Продолжительность: 2 ч. 10 м.
Битрейт: 1133 Кбит/сек
Ширина: 720 пикселей
Высота: 384 пикселя
Соотношение сторон: 1,875
Частота кадров: 23,976 кадра/сек
Цветовое пространство: YUV
Субдискретизация насыщенности: 4:2:0
Битовая глубина: 8 бит
Тип развёртки: Прогрессивная
Метод сжатия: С потерями
Бит/(Пиксели*Кадры): 0.171
Размер потока: 1,04 Гбайт (71%)
Библиотека кодирования: XviD 64

Аудио
Идентификатор: 1
Формат: AC-3
Формат/Информация: Audio Coding 3
Расширение режима: CM (complete main)
Идентификатор кодека: 2000
Продолжительность: 2 ч. 10 м.
Вид битрейта: Постоянный
Битрейт: 448 Кбит/сек
Каналы: 6 каналов
Расположение каналов: Front: L C R, Side: L R, LFE
Частота: 48,0 КГц
Битовая глубина: 16 бит
Метод сжатия: С потерями
Размер потока: 419 Мбайт (28%)
Выравнивание: Разделение по промежуткам
Продолжительность промежутка: 42мс. (1,00 видеокадр)
Время предзагрузки промежутка: 500мс.

















Поделиться:




реклама партнёра


Вернуться к началу
 Профиль Отправить личное сообщение  
 
   Похожие торренты   Автор   Торрент   Размер 
В этой теме нет новых непрочитанных сообщений. Пожары / Incendies [Драма, детектив, военный, 2010] BDRip 1080p, Mvo+Sub

salma3

27 | 8

14.4 ГБ

В этой теме нет новых непрочитанных сообщений. Убийца / Sicario (Дени Вильнёв) [Боевик, триллер, драма, криминал, детектив, 2015] HDRip, dub [Line]

Dracon

2730 | 87

2.08 ГБ

В этой теме нет новых непрочитанных сообщений. Убийца / Sicario (Дени Вильнёв) [Боевик, триллер, драма, криминал, детектив, 2015] BDRip 720p, dub [Line]

Dracon

7609 | 957

4.53 ГБ

В этой теме нет новых непрочитанных сообщений. Убийца / Sicario (Дени Вильнёв) [Боевик, триллер, драма, криминал, детектив, 2015] BDRip 720p [Есарев]

Dracon

6139 | 478

5.13 ГБ

В этой теме нет новых непрочитанных сообщений. Убийца / Sicario (Дени Вильнёв) [Боевик, триллер, драма, криминал, детектив, 2015] BDRip 1080p, dub+sub [iTunes]

Dracon

1173 | 132

7.54 ГБ

В этой теме нет новых непрочитанных сообщений. Убийца / Sicario (Дени Вильнёв) [Боевик, триллер, драма, криминал, детектив, 2015] BDRip 1080p [Есарев]

Dracon

1993 | 122

8.92 ГБ

В этой теме нет новых непрочитанных сообщений. Убийца / Sicario (Дени Вильнёв) [Боевик, триллер, драма, криминал, детектив, 2015] HDRip [Есарев (цензура)]

Dracon

1156 | 18

1.47 ГБ


Начать новую тему Ответить на тему  [ 1 сообщение ] 




Для Мосгорсуда, Роскомнадзора и рекламодателей:: mosgorsud-torrent[собачка]yandex.ru