Торрент файл
скачать торрент магнет ссылка Добавлен: 10 янв 2012, 19:36
Размер: 1.49 ГБ
Сидеров: 139
Личеров: 11
Автор

СообщениеДобавлено: 10 янв 2012, 19:36 

Не в сети
Супермодератор
Аватара пользователя
Дата регистрации:
11 апр 2010, 18:10
Спасибо: 5801 / 7
Сообщения: 56779
[b]Аноним / Anonymous[/b]


Перевод: Профессиональный (полное дублирование)
Субтитры: отсутствуют
Формат: DVDRip-AVC, MKV, H.264, AC3

Страна:Германия, Великобритания

Режиссер: Роланд Эммерих
Жанр: триллер, драма
Продолжительность:
Год выпуска: 2011

В ролях: Рис Иванс, Ванесса Редгрейв, Себастьян Фернандес-Арместо, Рейф Сполл, Дэвид Тьюлис, Эдвард Хогг, Ксавьер Сэмюэл, Сэм Рейд, Джейми Кэмпбелл Бауэр, Джоэли Ричардсон.

Описание: Фильм даст совершенно неожиданный ответ на извечный вопрос: а кем же «был или не был» Шекспир, и кто на самом деле скрывается за этим всемирно известным именем великого человека?



Видео: 1024x432 (2.35:1), 25 fps, AVC MPEG-4 High@L4.1 ~1348 kbps avg, 0.122 bit/pixel
Аудио: 48 kHz, AC3 Dolby Digital, 3/2 (L,C,R,l,r) + LFE ch, ~384 kbps avg

Релиз группы

Рип от: __


General
Unique ID: 240350626567198370692348794024578015193 (0xB4D1D8CD81FF27D2B7AE141A5A505FD9)
Complete name: D:\Мои рипы\Аноним\Anonim.2011.D.DVDRip.mkv
Format: Matroska
Format version: Version 2
File size: 1.49 GiB
Duration: 2h 4mn
Overall bit rate: 1 711 Kbps
Movie name: Anonymous .S.I.D
Encoded date: UTC 2011-12-26 11:30:28
Writing application: mkvmerge v2.9.8 ('C'est le bon') built on Aug 13 2009 12:49:06
Writing library: libebml v0.7.7 + libmatroska v0.8.1

Video
ID: 1
Format: AVC
Format/Info: Advanced Video Codec
Format profile: High@L4.1
Format settings, CABAC: Yes
Format settings, ReFrames: 8 frames
Codec ID: V_MPEG4/ISO/AVC
Duration: 2h 4mn
Bit rate: 1 348 Kbps
Width: 1 024 pixels
Height: 432 pixels
Display aspect ratio: 2.35:1
Frame rate: 25.000 fps
Color space: YUV
Chroma subsampling: 4:2:0
Bit depth: 8 bits
Scan type: Progressive
Bits/(Pixel*Frame): 0.122
Stream size: 1.13 GiB (76%)
Title: RG Films Tfile
Writing library: x264 core 119 r2106 07efeb4
Encoding settings: cabac=1 / ref=8 / deblock=1:-1:-1 / analyse=0x3:0x111 / me=umh / subme=0 / psy=1 / psy_rd=1.00:0.10 / mixed_ref=1 / me_range=16 / chroma_me=1 / trellis=2 / 8x8dct=1 / cqm=0 / deadzone=21,11 / fast_pskip=0 / chroma_qp_offset=-1 / threads=6 / sliced_threads=0 / nr=0 / decimate=1 / interlaced=0 / bluray_compat=0 / constrained_intra=0 / bframes=8 / b_pyramid=2 / b_adapt=2 / b_bias=0 / direct=1 / weightb=1 / open_gop=0 / weightp=2 / keyint=250 / keyint_min=25 / scenecut=40 / intra_refresh=0 / rc_lookahead=40 / rc=abr / mbtree=1 / bitrate=1348 / ratetol=1.0 / qcomp=0.60 / qpmin=0 / qpmax=69 / qpstep=4 / ip_ratio=1.40 / aq=1:1.00
Language: English
Default: Yes
Forced: No

Audio
ID: 2
Format: AC-3
Format/Info: Audio Coding 3
Mode extension: CM (complete main)
Codec ID: A_AC3
Duration: 2h 4mn
Bit rate mode: Constant
Bit rate: 384 Kbps
Channel(s): 6 channels
Channel positions: Front: L C R, Side: L R, LFE
Sampling rate: 48.0 KHz
Bit depth: 16 bits
Compression mode: Lossy
Stream size: 342 MiB (22%)
Title: Dublirovanie
Language: Russian
Default: Yes
Forced: No








Поделиться:




реклама партнёра


Вернуться к началу
 Профиль Отправить личное сообщение  
 
   Похожие торренты   Автор   Торрент   Размер 
В этой теме нет новых непрочитанных сообщений. Восстание Техаса / Texas Rising [01х01-09 из 10] (Роланд Жоффе) [2015, драма, вестерн, WEB-DL 1080p | BaibaKo]

Dracon

2 | 8

14.74 ГБ

В этой теме нет новых непрочитанных сообщений. Восстание Техаса / Texas Rising [S01] (Роланд Жоффе) [драма, вестерн, 2015] WEB-DL 720p [Gears Media]

Dracon

74 | 33

11.94 ГБ

В этой теме нет новых непрочитанных сообщений. Восстание Техаса / Texas Rising [S01] (Роланд Жоффе) [драма, вестерн, 2015] WEB-DL 1080p [Gears Media]

Dracon

39 | 21

15.61 ГБ

В этой теме нет новых непрочитанных сообщений. Восстание Техаса / Texas Rising [01х01-10 из 10] (Роланд Жоффе) [2015, драма, вестерн, WEB-DLRip | Gears Media]

Dracon

218 | 65

6.72 ГБ

В этой теме нет новых непрочитанных сообщений. Тайна повитухи / Das Geheimnis der Hebamme (Роланд Зузо Рихтер / Roland Suso Richter) [2016г., Германия, драма, исторический, HDTVRip] sub

Alfredovich

2 | 2

1.28 ГБ

В этой теме нет новых непрочитанных сообщений. Headspace - I Am Anonymous [2012, Progressive Metal,Progressive Rock, MP3]

PriZraK

0 | 1

169.05 МБ

В этой теме нет новых непрочитанных сообщений. Вне времени  / The Lovers (Роланд Жоффе) [фантастика, боевик, мелодрама, приключения, 2015] WEB-DL 720p, mvo

Dracon

34 | 4

3.54 ГБ


Начать новую тему Ответить на тему  [ 1 сообщение ] 




Для Мосгорсуда, Роскомнадзора и рекламодателей:: mosgorsud-torrent[собачка]yandex.ru