Торрент файл
скачать торрент магнет ссылка Добавлен: 10 янв 2012, 19:36
Размер: 698.17 МБ
Сидеров: 44
Личеров: 10
Автор

СообщениеДобавлено: 10 янв 2012, 19:36 

Не в сети
Супермодератор
Аватара пользователя
Дата регистрации:
11 апр 2010, 18:10
Спасибо: 5960 / 7
Сообщения: 56765
[b]Маппеты / The Muppets[/b]


Перевод: Любительский (одноголосый)
Субтитры: Отсутствуют
Формат: TeleSynch, AVI, XviD, MP3
Страна: США
Режиссер: Джеймс Бобин
Жанр: комедия, мюзикл, семейный
Продолжительность: 01:39:03
Год выпуска: 2011
В ролях: Джейсон Сигел, Эми Адамс, Джек Блэк, Зак Галифианакис, Кен Жонг, Эмили Блант, Вупи Голдберг, Селена Гомес, Крис Купер, Эрик Джейкобсон, Дэйв Гольц, Билл Барретта
Описание: Сюжет объединяет потрепанных кукол для финального шоу, которое призвано спасти киностудию от разорения.

[/field]

Видео: 640x352 (4:2:0), 24 fps, XviD MPEG-4 Visual ~848 kbps avg, 0.157 bit/pixel
Аудио: 44.1 kHz, MPEG Layer 3, 2 ch, ~128.00 kbps avg




Общее
Полное имя: mapets.avi
Формат: AVI
Формат/Информация: Audio Video Interleave
Размер файла: 698 Мбайт
Продолжительность: 1 ч. 39 м.
Общий поток: 985 Кбит/сек
Программа кодирования: VirtualDubMod 1.5.10.2 (build 2540/release)
Библиотека кодирования: VirtualDubMod build 2540/release

Видео
Идентификатор: 0
Формат: MPEG-4 Visual
Профиль формата: Advanced Simple@L5
Параметр BVOP формата: 1
Параметр QPel формата: Нет
Параметр GMC формата: Без точки перехода
Параметр матрицы формата: Default (MPEG)
Идентификатор кодека: XVID
Идентификатор кодека/Подсказка: XviD
Продолжительность: 1 ч. 39 м.
Битрейт: 848 Кбит/сек
Ширина: 640 пикселей
Высота: 352 пикселя
Соотношение сторон: 16:9
Частота кадров: 24,000 кадра/сек
Цветовое пространство: YUV
Субдискретизация насыщенности: 4:2:0
Битовая глубина: 8 бит
Тип развёртки: Прогрессивная
Метод сжатия: С потерями
Бит/(Пиксели*Кадры): 0.157
Размер потока: 601 Мбайт (86%)
Библиотека кодирования: XviD 1.1.2 (UTC 2006-11-01)

Аудио
Идентификатор: 1
Формат: MPEG Audio
Версия формата: Version 1
Профиль формата: Layer 3
Режим: Joint stereo
Расширение режима: MS Stereo
Идентификатор кодека: 55
Идентификатор кодека/Подсказка: MP3
Продолжительность: 1 ч. 39 м.
Вид битрейта: Постоянный
Битрейт: 128 Кбит/сек
Каналы: 2 канала
Частота: 44,1 КГц
Метод сжатия: С потерями
Размер потока: 90,7 Мбайт (13%)
Выравнивание: Разделение по промежуткам
Продолжительность промежутка: 42мс. (1,00 видеокадр)
Время предзагрузки промежутка: 500мс.












Поделиться:




реклама партнёра


Вернуться к началу
 Профиль Отправить личное сообщение  
 
   Похожие торренты   Автор   Торрент   Размер 
В этой теме нет новых непрочитанных сообщений. Маппеты / The Muppets [01x01-10 из 13] (Рэндолл Айнхорн) [Комедия, 2015] WEB-DLRip 720p [Baibako]

Dracon

1 | 0

7.24 ГБ

В этой теме нет новых непрочитанных сообщений. Маппеты / The Muppets [1 сезон: 1-7 серии из 13] (Рэндолл Айнхорн) [Комедия, 2015] WEB-DLRip [Baibako]

Dracon

1 | 1

2 ГБ

В этой теме нет новых непрочитанных сообщений. Маппеты / The Muppets [1 сезон: 1-12 серии из 16 + пилот] (Рэндолл Айнхорн) [Комедия, 2015] WEB-DLRip [GladiolusTV]

Dracon

1 | 2

3.56 ГБ

В этой теме нет новых непрочитанных сообщений. Галавант / Galavant [s01] (Крис Кох, Джон Фортенберри, Джеймс Гриффитс) [2015, мюзикл, комедия, HDTVRip]

Nickolas3435

26 | 6

2.78 ГБ

В этой теме нет новых непрочитанных сообщений. Энни / Annie [драма, комедия, мюзикл, семейный, 1982] BDRip 1080, Mvo

salma3

4 | 0

9.09 ГБ

В этой теме нет новых непрочитанных сообщений. Моана / Moana (мультфильм, мюзикл, фэнтези, комедия, приключения, семейный, 2016) TS | D

marya111

3968 | 438

1.37 ГБ

В этой теме нет новых непрочитанных сообщений. Чем дальше в лес / Into the Woods (Роб Маршалл) [Мюзикл, фэнтези, комедия, семейный, 2014] DVDScr, avo+sub

Dracon

512 | 80

1.88 ГБ


Начать новую тему Ответить на тему  [ 1 сообщение ] 




Для Мосгорсуда, Роскомнадзора и рекламодателей:: mosgorsud-torrent[собачка]yandex.ru