Торрент файл
скачать торрент магнет ссылка Добавлен: 10 янв 2012, 19:35
Размер: 2.18 ГБ
Сидеров: 836
Личеров: 79
Автор

СообщениеДобавлено: 10 янв 2012, 19:35 

Не в сети
Супермодератор
Аватара пользователя
Дата регистрации:
11 апр 2010, 18:10
Спасибо: 5799 / 7
Сообщения: 56779
Аноним / Anonymous

«Что скрывает имя Шекспир?»

Перевод: Профессиональный (полное дублирование)
Субтитры:русские (форсированные)
Формат: HDRip-AVC, MKV, H.264, AC3

Страна: США
Режиссер: Роланд Эммерих
Жанр: драма

Продолжительность: 02:10:05
Год выпуска: 2011

В ролях: Рис Иванс, Ванесса Редгрейв, Себастьян Фернандес-Арместо, Рейф Сполл, Дэвид Тьюлис, Эдвард Хогг

Описание: Фильм даст совершенно неожиданный ответ на извечный вопрос: а кем же «был или не был» Шекспир, и кто на самом деле скрывается за этим всемирно известным именем великого человека?







Видео: 1280x544 (2.35:1), 23.976 fps, AVC (x264) High@L4.1 ~1634 Kbps, 0.098 bits/pixel
Аудио #1: Русский: 48 kHz, AC3 Dolby Digital, 3/2 (L,C,R,l,r) + LFE ch, ~384 kbps [полное дублирование]
Аудио #2: Украинский: 48 kHz, AC3 Dolby Digital, 3/2 (L,C,R,l,r) + LFE ch, ~384 kbps [полное дублирование]







Format : Matroska
File size : 2.18 GiB
Duration : 2h 10mn
Overall bit rate : 2 402 Kbps
Movie name : Anonim.2.18.chopper887.mkv
Encoded date : UTC 2011-12-25 16:30:38
Writing application : mkvmerge v4.8.0 ('I Got The...') сборка от May 24 2011 03:12:58
Writing library : libebml v1.2.0 + libmatroska v1.1.0

Video
ID : 1
Format : AVC
Format/Info : Advanced Video Codec
Format profile : High@L4.1
Format settings, CABAC : Yes
Format settings, ReFrames : 10 frames
Codec ID : V_MPEG4/ISO/AVC
Duration : 2h 10mn
Bit rate : 1 634 Kbps
Width : 1 280 pixels
Height : 544 pixels
Display aspect ratio : 2.35:1
Frame rate : 23.976 fps
Color space : YUV
Chroma subsampling : 4:2:0
Bit depth : 8 bits
Scan type : Progressive
Bits/(Pixel*Frame) : 0.098
Stream size : 1.44 GiB (66%)
Title : Anonim.2.18.chopper887
Writing library : x264 core 120 r2120 0c7dab9
Encoding settings : cabac=1 / ref=10 / deblock=1:-2:-1 / analyse=0x3:0x133 / me=umh / subme=11 / psy=1 / psy_rd=0.95:0.05 / mixed_ref=1 / me_range=32 / chroma_me=1 / trellis=2 / 8x8dct=1 / cqm=0 / deadzone=21,11 / fast_pskip=0 / chroma_qp_offset=-3 / threads=12 / sliced_threads=0 / nr=0 / decimate=1 / interlaced=0 / bluray_compat=0 / constrained_intra=0 / bframes=9 / b_pyramid=2 / b_adapt=2 / b_bias=0 / direct=3 / weightb=1 / open_gop=0 / weightp=2 / keyint=250 / keyint_min=23 / scenecut=40 / intra_refresh=0 / rc_lookahead=80 / rc=2pass / mbtree=1 / bitrate=1634 / ratetol=1.0 / qcomp=0.60 / qpmin=10 / qpmax=51 / qpstep=4 / cplxblur=20.0 / qblur=0.5 / ip_ratio=1.40 / aq=1:1.00
Language : English

Audio #1
ID : 2
Format : AC-3
Format/Info : Audio Coding 3
Mode extension : CM (complete main)
Codec ID : A_AC3
Duration : 2h 10mn
Bit rate mode : Constant
Bit rate : 384 Kbps
Channel(s) : 6 channels
Channel positions : Front: L C R, Side: L R, LFE
Sampling rate : 48.0 KHz
Bit depth : 16 bits
Compression mode : Lossy
Stream size : 357 MiB (16%)
Title : Dub

Audio #2
ID : 3
Format : AC-3
Format/Info : Audio Coding 3
Mode extension : CM (complete main)
Codec ID : A_AC3
Duration : 2h 10mn
Bit rate mode : Constant
Bit rate : 384 Kbps
Channel(s) : 6 channels
Channel positions : Front: L C R, Side: L R, LFE
Sampling rate : 48.0 KHz
Bit depth : 16 bits
Compression mode : Lossy
Stream size : 357 MiB (16%)
Title : Ukr

Text
ID : 4
Format : UTF-8
Codec ID : S_TEXT/UTF8
Codec ID/Info : UTF-8 Plain Text
Title : Русские(только надписи)









Поделиться:




реклама партнёра


Вернуться к началу
 Профиль Отправить личное сообщение  
 
   Похожие торренты   Автор   Торрент   Размер 
В этой теме нет новых непрочитанных сообщений. Вне времени  / The Lovers (Роланд Жоффе) [фантастика, боевик, мелодрама, приключения, 2015] HDRip, Dub [Лицензия]

Dracon

1419 | 52

2.06 ГБ

В этой теме нет новых непрочитанных сообщений. Вне времени / The Lovers (Роланд Жоффе) [фантастика, боевик, мелодрама, приключения, 2015] HDRip, Dub [Лицензия]

Dracon

56 | 3

1.37 ГБ

В этой теме нет новых непрочитанных сообщений. Восстание Техаса / Texas Rising [S01] (Роланд Жоффе) [драма, вестерн, 2015] WEB-DL 1080p [Gears Media]

Dracon

39 | 21

15.61 ГБ

В этой теме нет новых непрочитанных сообщений. Восстание Техаса / Texas Rising [01х01-09 из 10] (Роланд Жоффе) [2015, драма, вестерн, WEB-DL 1080p | BaibaKo]

Dracon

2 | 8

14.74 ГБ

В этой теме нет новых непрочитанных сообщений. Восстание Техаса / Texas Rising [S01] (Роланд Жоффе) [драма, вестерн, 2015] WEB-DL 720p [Gears Media]

Dracon

74 | 33

11.94 ГБ

В этой теме нет новых непрочитанных сообщений. Восстание Техаса / Texas Rising [01х01-10 из 10] (Роланд Жоффе) [2015, драма, вестерн, WEB-DLRip | Gears Media]

Dracon

218 | 65

6.72 ГБ

В этой теме нет новых непрочитанных сообщений. Тайна повитухи / Das Geheimnis der Hebamme (Роланд Зузо Рихтер / Roland Suso Richter) [2016г., Германия, драма, исторический, HDTVRip] sub

Alfredovich

2 | 2

1.28 ГБ


Начать новую тему Ответить на тему  [ 1 сообщение ] 




Для Мосгорсуда, Роскомнадзора и рекламодателей:: mosgorsud-torrent[собачка]yandex.ru