Торрент файл
скачать торрент магнет ссылка Добавлен: 10 янв 2012, 19:33
Размер: 734.87 МБ
Сидеров: 250
Личеров: 31
Автор

СообщениеДобавлено: 10 янв 2012, 19:33 

Не в сети
Супермодератор
Аватара пользователя
Дата регистрации:
11 апр 2010, 18:10
Спасибо: 5960 / 7
Сообщения: 56765
[b]Шпион, выйди вон! / Tinker Tailor Soldier Spy[/b]


«Секретная информация будет раскрыта»

Перевод: Профессиональный (полное дублирование)
Субтитры: отсутствуют
Формат: DVDRip-AVC, MKV, H.264, MP3

Страна:Германия, Франция, Великобритания

Режиссер: Томас Альфредсон
Жанр: триллер, детектив
Продолжительность: 02:02:08
Год выпуска: 2011

В ролях: Гари Олдман, Колин Фёрт, Том Харди, Джон Хёрт, Тоби Джонс, Марк Стронг, Бенедикт Камбербэтч, Кьяран Хайндс, Константин Хабенский, Светлана Ходченкова.

Описание: Многие сотрудники британской разведки догадывались, что в ее руководстве давно засел «крот», работающий на Россию. Но те, кто отваживался об этом заявлять открыто, почему-то оказывались в отставке. Остальные предпочитали помалкивать. Но подтверждение существования русского агента пришло с совсем неожиданной стороны. Начинается тайное расследование, возглавляемое находящимся в отставке Джорджем Смайли. И никто, включая высшее руководство разведки, не должен догадаться, что на крота снова объявлена охота.



Видео: 800 x 336 (2:25:1), 25.000 fps, AVC (х264), High@L3.1, ~ 719 Kbps, 0.107 bit/pixel
Аудио : 48 kHz, MPEG Layer 3, 2 ch, ~128.00 kbps avg

Релиз-Группа:


General
Unique ID : 193008395346033197278151637957100673788 (0x913410977CA0AD0EB642730B502B9AFC)
Complete name : F:\Раздачи\shpion_vyjdi_von_[tfile.ru].mkv
Format : Matroska
File size : 735 MiB
Duration : 2h 2mn
Overall bit rate : 841 Kbps
Encoded date : UTC 2012-01-07 04:15:40
Writing application : mkvmerge v4.6.0 ('Still Crazy After All These Years') сборка от Mar 13 2011 18:33:29
Writing library : libebml v1.2.0 + libmatroska v1.1.0
Video #1
ID : 1
Format : AVC
Format/Info : Advanced Video Codec
Format profile : High@L3.1
Format settings, CABAC : Yes
Format settings, ReFrames : 8 frames
Format settings, GOP : M=1, N=32
Codec ID : V_MPEG4/ISO/AVC
Duration : 2h 2mn
Bit rate : 719 Kbps
Width : 800 pixels
Height : 336 pixels
Display aspect ratio : 2.35:1
Frame rate : 25.000 fps
Color space : YUV
Chroma subsampling : 4:2:0
Bit depth : 8 bits
Scan type : Progressive
Bits/(Pixel*Frame) : 0.107
Stream size : 615 MiB (84%)
Writing library : x264 core 114 r1913 5fd3dce
Encoding settings : cabac=1 / ref=8 / deblock=1:-1:-1 / analyse=0x3:0x133 / me=umh / subme=7 / psy=1 / psy_rd=1.00:0.10 / mixed_ref=1 / me_range=16 / chroma_me=1 / trellis=2 / 8x8dct=1 / cqm=0 / deadzone=21,11 / fast_pskip=0 / chroma_qp_offset=-3 / threads=6 / sliced_threads=0 / nr=0 / decimate=1 / interlaced=0 / constrained_intra=0 / bframes=3 / b_pyramid=2 / b_adapt=2 / b_bias=0 / direct=3 / weightb=1 / open_gop=0 / weightp=2 / keyint=250 / keyint_min=25 / scenecut=40 / intra_refresh=0 / rc_lookahead=50 / rc=2pass / mbtree=1 / bitrate=719 / ratetol=1.0 / qcomp=0.60 / qpmin=0 / qpmax=69 / qpstep=4 / cplxblur=20.0 / qblur=0.5 / ip_ratio=1.40 / aq=1:1.00
Audio #2
ID : 2
Format : MPEG Audio
Format version : Version 1
Format profile : Layer 3
Codec ID : A_MPEG/L3
Codec ID/Hint : MP3
Duration : 2h 2mn
Bit rate mode : Variable
Bit rate : 120 Kbps
Nominal bit rate : 128 Kbps
Channel(s) : 2 channels
Sampling rate : 48.0 KHz
Compression mode : Lossy
Stream size : 105 MiB (14%)
Writing library : LAME3.98r
Encoding settings : -m s -V 4 -q 2 -lowpass 17 --abr 128

Том Харди был утвержден на роль Рикки Тарра совершенно случайно. Продюсер фильма Тим Беван заявил, что актёр напоминает ему молодого Роберта Рэдфорда.

Чтобы подготовиться к роли Джорджа Смайли, Гэри Олдмен ел много патоки и заварного крема, чтоб отрастить «небольшой живот, как у людей пожилого возраста», наблюдал за игрой Алека Гиннесса в телесериале 1979 года, а также общался с «создателем» Смайли — Джоном Ле Карре.

Одним из первых кандидатов на роль Смайли был Джон Хёрт. Позже ему была отдана роль Контролёра.

Чтобы выбрать очки Джорджа Смайли, Олдмен посетил магазин Old Focals в Пасадене, где он померил сотни пар оправ, прежде чем нашел нужную.

На ранних стадиях подготовки к съёмкам, переговоры с кинокомпанией вел Дэвид Тьюлис.

В фильме должен был сниматься Майкл Фассбендер, но в результате был заменен Томом Харди.

В оригинале фильм называется «Лудильщик, портной, солдат, шпион» (Tinker Tailor Soldier Spy). Это слова детской считалки, профессии из нее в фильме являются кодовыми именами главных героев.

Роман Джона Ле Карре «Шпион, выйди вон!» уже экранизировался в 1979 году в виде телевизионного мини-сериала. Джорджа Смайли сыграл Алек Гиннесс.


















Поделиться:




реклама партнёра


Вернуться к началу
 Профиль Отправить личное сообщение  
 
   Похожие торренты   Автор   Торрент   Размер 
В этой теме нет новых непрочитанных сообщений. Шпион, выйди вон! / Tinker Tailor Soldier Spy [триллер, детектив, 2011] HDRip, Dub

salma3

229 | 32

1.45 ГБ

В этой теме нет новых непрочитанных сообщений. Портной Из Панамы / The Tailor Of Panama [Триллер, драма, 2001] BDRip 720p, Mvo+Avo+Sub

salma3

0 | 0

5.21 ГБ

В этой теме нет новых непрочитанных сообщений. Лондонский шпион / London spy [01x01-05 из 05] (Якоб Вербрюгген) [2015, Драма, детектив, HDTVRip | Lord32x Studio]

Dracon

130 | 28

2.45 ГБ

В этой теме нет новых непрочитанных сообщений. Похищение Фредди Хайнекена / Kidnapping Mr. Heineken (Дэниэл Альфредсон) [боевик, триллер, драма, криминал, 2015] WEB-DL 720p, dvo

Dracon

42 | 5

3.06 ГБ

В этой теме нет новых непрочитанных сообщений. Похищение Фредди Хайнекена / Kidnapping Mr. Heineken (Дэниэл Альфредсон) [боевик, триллер, драма, криминал, 2015] WEB-DLRip, dvo

Dracon

32 | 5

1.28 ГБ

В этой теме нет новых непрочитанных сообщений. Лондонский шпион / London spy [01x01-05 из 05] (Якоб Вербрюгген) [2015, Драма, детектив, HDTVRip 720p | Lord32x Studio]

Dracon

11 | 18

4.89 ГБ

В этой теме нет новых непрочитанных сообщений. Похищение Фредди Хайнекена / Kidnapping Mr. Heineken (Дэниэл Альфредсон) [боевик, триллер, драма, криминал, 2015] HDRip, dub [Чистый звук]

Dracon

24 | 0

1.37 ГБ


Начать новую тему Ответить на тему  [ 1 сообщение ] 




Для Мосгорсуда, Роскомнадзора и рекламодателей:: mosgorsud-torrent[собачка]yandex.ru