Торрент файл
скачать торрент магнет ссылка Добавлен: 10 янв 2012, 19:33
Размер: 2.18 ГБ
Сидеров: 127
Личеров: 8
Автор

СообщениеДобавлено: 10 янв 2012, 19:33 

Не в сети
Супермодератор
Аватара пользователя
Дата регистрации:
11 апр 2010, 18:10
Спасибо: 5798 / 7
Сообщения: 56779
[b]Шпион, выйди вон! / Tinker Tailor Soldier Spy[/b]


Перевод: Профессиональный (полное дублирование)
Субтитры: отсутствуют
Формат: DVDRip-AVC, MKV, H.264, AC3

Страна:Германия, Франция, Великобритания

Режиссер: Томас Альфредсон
Жанр: триллер, детектив
Продолжительность: 02:02:09
Год выпуска: 2011

В ролях: Гари Олдман, Колин Фёрт, Том Харди, Джон Хёрт, Тоби Джонс, Марк Стронг, Бенедикт Камбербэтч, Кьяран Хайндс, Константин Хабенский, Светлана Ходченкова.

Описание: Многие сотрудники британской разведки догадывались, что в ее руководстве давно засел «крот», работающий на Россию. Но те, кто отваживался об этом заявлять открыто, почему-то оказывались в отставке. Остальные предпочитали помалкивать. Но подтверждение существования русского агента пришло с совсем неожиданной стороны. Начинается тайное расследование, возглавляемое находящимся в отставке Джорджем Смайли. И никто, включая высшее руководство разведки, не должен догадаться, что на крота снова объявлена охота.



Видео: 1024x432 (2.35:1), 25 fps, AVC MPEG-4 High@L4.1 ~1798 kbps avg, 0.163 bit/pixel
Аудио #1: русский48 kHz, AC3 Dolby Digital, 3/2 (L,C,R,l,r) + LFE ch, ~384 kbps avg [Профессиональный (полное дублирование)]
Аудио #2: английский48 kHz, AC3 Dolby Digital, 3/2 (L,C,R,l,r) + LFE ch, ~384 kbps avg [оригинал]

Рип от: __


General
Unique ID: 217709563281571049974678738805248783175 (0xA3C95632A62E1540B1DECA0CE4387347)
Complete name: D:\Мои рипы\Shpion.vijdi.von.2011.D.DVDRip.mkv
Format: Matroska
Format version: Version 2
File size: 2.18 GiB
Duration: 2h 2mn
Overall bit rate: 2 552 Kbps
Movie name: Tinker.Tailor.Soldier.Spy.S.I.D
Encoded date: UTC 2012-01-06 21:35:14
Writing application: mkvmerge v2.9.8 ('C'est le bon') built on Aug 13 2009 12:49:06
Writing library: libebml v0.7.7 + libmatroska v0.8.1

Video
ID: 1
Format: AVC
Format/Info: Advanced Video Codec
Format profile: High@L4.1
Format settings, CABAC: Yes
Format settings, ReFrames: 8 frames
Codec ID: V_MPEG4/ISO/AVC
Duration: 2h 2mn
Bit rate: 1 798 Kbps
Width: 1 024 pixels
Height: 432 pixels
Display aspect ratio: 2.35:1
Frame rate: 25.000 fps
Color space: YUV
Chroma subsampling: 4:2:0
Bit depth: 8 bits
Scan type: Progressive
Bits/(Pixel*Frame): 0.163
Stream size: 1.48 GiB (68%)
Title: RG Films Tfile
Writing library: x264 core 119 r2106 07efeb4
Encoding settings: cabac=1 / ref=8 / deblock=1:-1:-1 / analyse=0x3:0x111 / me=umh / subme=0 / psy=1 / psy_rd=1.00:0.10 / mixed_ref=1 / me_range=16 / chroma_me=1 / trellis=2 / 8x8dct=1 / cqm=0 / deadzone=21,11 / fast_pskip=0 / chroma_qp_offset=-1 / threads=6 / sliced_threads=0 / nr=0 / decimate=1 / interlaced=0 / bluray_compat=0 / constrained_intra=0 / bframes=5 / b_pyramid=2 / b_adapt=2 / b_bias=0 / direct=1 / weightb=1 / open_gop=0 / weightp=2 / keyint=250 / keyint_min=25 / scenecut=40 / intra_refresh=0 / rc_lookahead=40 / rc=abr / mbtree=1 / bitrate=1798 / ratetol=1.0 / qcomp=0.60 / qpmin=0 / qpmax=69 / qpstep=4 / ip_ratio=1.40 / aq=1:1.00
Language: English
Default: Yes
Forced: No

Audio #1
ID: 2
Format: AC-3
Format/Info: Audio Coding 3
Mode extension: CM (complete main)
Codec ID: A_AC3
Duration: 2h 2mn
Bit rate mode: Constant
Bit rate: 384 Kbps
Channel(s): 6 channels
Channel positions: Front: L C R, Side: L R, LFE
Sampling rate: 48.0 KHz
Bit depth: 16 bits
Compression mode: Lossy
Stream size: 335 MiB (15%)
Title: дублирование
Language: Russian
Default: Yes
Forced: No

Audio #2
ID: 3
Format: AC-3
Format/Info: Audio Coding 3
Mode extension: CM (complete main)
Codec ID: A_AC3
Duration: 2h 2mn
Bit rate mode: Constant
Bit rate: 384 Kbps
Channel(s): 6 channels
Channel positions: Front: L C R, Side: L R, LFE
Sampling rate: 48.0 KHz
Bit depth: 16 bits
Compression mode: Lossy
Stream size: 335 MiB (15%)
Title: оригинал
Language: English
Default: No
Forced: No








Поделиться:




реклама партнёра


Вернуться к началу
 Профиль Отправить личное сообщение  
 
   Похожие торренты   Автор   Торрент   Размер 
В этой теме нет новых непрочитанных сообщений. Французский шпион [боевик, детектив, 2014] DVDRip [Лицензия]

Dracon

3683 | 107

1.37 ГБ

В этой теме нет новых непрочитанных сообщений. Портной Из Панамы / The Tailor Of Panama [Триллер, драма, 2001] BDRip 1080p, Mvo+Avo+Sub

salma3

35 | 4

7.75 ГБ

В этой теме нет новых непрочитанных сообщений. Французский шпион [боевик, детектив, 2014] DVD5 [Лицензия]

Dracon

85 | 7

4.19 ГБ

В этой теме нет новых непрочитанных сообщений. Dog Soldier - Dog Soldier [1975, Rock, MP3]

PriZraK

0 | 1

158.93 МБ

В этой теме нет новых непрочитанных сообщений. Французский шпион [боевик, детектив, 2014] WEBRip 720p [Лицензия]

Dracon

82 | 3

2.77 ГБ

В этой теме нет новых непрочитанных сообщений. Шпион / Seu-pa-i (И Сын Чжун / Lee Seung-joon) [2013г., детектив, комедия, HDRip] VO

Alfredovich

7 | 4

1.46 ГБ

В этой теме нет новых непрочитанных сообщений. Французский шпион (Алексей Феоктистов) [2014, Детектив, боевик, SATRip]

Nickolas3435

31 | 4

1.38 ГБ


Начать новую тему Ответить на тему  [ 1 сообщение ] 




Для Мосгорсуда, Роскомнадзора и рекламодателей:: mosgorsud-torrent[собачка]yandex.ru