Торрент файл
скачать торрент магнет ссылка Добавлен: 10 янв 2012, 19:33
Размер: 1.46 ГБ
Сидеров: 1128
Личеров: 43
Автор

СообщениеДобавлено: 10 янв 2012, 19:33 

Не в сети
Супермодератор
Аватара пользователя
Дата регистрации:
11 апр 2010, 18:10
Спасибо: 5802 / 7
Сообщения: 56779
Шпион, выйди вон! / Tinker Tailor Soldier Spy


Перевод: Профессиональный (полное дублирование), cубтитры: отсутствуют
Формат: DVDRip-AVC, MKV, H.264, AC3
Страна: Германия, Франция, Великобритания
Режиссер: Томас Альфредсон
Жанр: триллер, детектив
Продолжительность: 02:02:08
Год выпуска: 2011

В ролях: Гари Олдман, Колин Фёрт, Том Харди, Джон Хёрт, Тоби Джонс, Марк Стронг, Бенедикт Камбербэтч, Кьяран Хайндс, Константин Хабенский, Светлана Ходченкова

Описание: Многие сотрудники британской разведки догадывались, что в ее руководстве давно засел «крот», работающий на Россию. Но те, кто отваживался об этом заявлять открыто, почему-то оказывались в отставке. Остальные предпочитали помалкивать. Но подтверждение существования русского агента пришло с совсем неожиданной стороны. Начинается тайное расследование, возглавляемое находящимся в отставке Джорджем Смайли. И никто, включая высшее руководство разведки, не должен догадаться, что на крота снова объявлена охота.



Видео: 976 x 400 (2:40:1), 25.000 fps, AVC (х264) High@L4.1, ~ 1320 Kbps, 0.135 bit/pixel
Аудио: 48 kHz, AC3 Dolby Digital, 3/2 (L,C,R,l,r) + LFE ch, ~384 kbps avg


Рип: jeenart

General
Unique ID: 230737361558907458713501821014735149467 (0xAD96663E85CE7E089C47A414B6E1599B)
Complete name: F:\Мои релизы\Все релизы 10\shpion_vyidi_von_[tfile.ru].mkv
Format: Matroska
File size: 1.46 GiB
Duration: 2h 2mn
Overall bit rate: 1 705 Kbps
Encoded date: UTC 2012-01-06 21:40:49
Writing application: mkvmerge v4.6.0 ('Still Crazy After All These Years') сборка от Apr1 2011 21:01:49
Writing library: libebml v1.2.0 + libmatroska v1.1.0

Video
ID: 1
Format: AVC
Format/Info: Advanced Video Codec
Format profile: High@L4.1
Format settings, CABAC: Yes
Format settings, ReFrames: 4 frames
Format settings, GOP: M=4, N=16
Codec ID: V_MPEG4/ISO/AVC
Duration: 2h 2mn
Bit rate: 1 320 Kbps
Width: 976 pixels
Height: 400 pixels
Display aspect ratio: 2.40:1
Frame rate: 25.000 fps
Color space: YUV
Chroma subsampling: 4:2:0
Bit depth: 8 bits
Scan type: Progressive
Bits/(Pixel*Frame): 0.135
Stream size: 1.10 GiB (75%)
Writing library: x264 core 115 r1937 aa21558
Encoding settings: cabac=1 / ref=3 / deblock=1:-1:-1 / analyse=0x3:0x113 / me=hex / subme=7 / psy=1 / psy_rd=1.00:0.10 / mixed_ref=1 / me_range=16 / chroma_me=1 / trellis=1 / 8x8dct=1 / cqm=0 / deadzone=21,11 / fast_pskip=1 / chroma_qp_offset=-3 / threads=6 / sliced_threads=0 / nr=0 / decimate=1 / interlaced=0 / bluray_compat=0 / constrained_intra=0 / bframes=3 / b_pyramid=2 / b_adapt=1 / b_bias=0 / direct=3 / weightb=1 / open_gop=0 / weightp=2 / keyint=250 / keyint_min=25 / scenecut=40 / intra_refresh=0 / rc_lookahead=40 / rc=2pass / mbtree=1 / bitrate=1320 / ratetol=1.0 / qcomp=0.60 / qpmin=0 / qpmax=69 / qpstep=4 / cplxblur=20.0 / qblur=0.5 / ip_ratio=1.40 / aq=1:1.00

Audio
ID: 2
Format: AC-3
Format/Info: Audio Coding 3
Mode extension: CM (complete main)
Codec ID: A_AC3
Duration: 2h 2mn
Bit rate mode: Constant
Bit rate: 384 Kbps
Channel(s): 6 channels
Channel positions: Front: L C R, Side: L R, LFE
Sampling rate: 48.0 KHz
Bit depth: 16 bits
Compression mode: Lossy
Stream size: 335 MiB (23%)


















Поделиться:




реклама партнёра


Вернуться к началу
 Профиль Отправить личное сообщение  
 
   Похожие торренты   Автор   Торрент   Размер 
В этой теме нет новых непрочитанных сообщений. Французский шпион [боевик, детектив, 2014] DVDRip [Лицензия]

Dracon

3817 | 111

1.37 ГБ

В этой теме нет новых непрочитанных сообщений. Портной Из Панамы / The Tailor Of Panama [Триллер, драма, 2001] BDRip 1080p, Mvo+Avo+Sub

salma3

35 | 4

7.75 ГБ

В этой теме нет новых непрочитанных сообщений. Французский шпион [боевик, детектив, 2014] DVD5 [Лицензия]

Dracon

85 | 7

4.19 ГБ

В этой теме нет новых непрочитанных сообщений. Dog Soldier - Dog Soldier [1975, Rock, MP3]

PriZraK

0 | 1

158.93 МБ

В этой теме нет новых непрочитанных сообщений. Французский шпион (Алексей Феоктистов) [2014, Детектив, боевик, SATRip]

Nickolas3435

31 | 5

1.38 ГБ

В этой теме нет новых непрочитанных сообщений. Шпион / Seu-pa-i (И Сын Чжун / Lee Seung-joon) [2013г., детектив, комедия, HDRip] VO

Alfredovich

7 | 4

1.46 ГБ

В этой теме нет новых непрочитанных сообщений. Французский шпион [боевик, детектив, 2014] WEBRip 720p [Лицензия]

Dracon

82 | 3

2.77 ГБ


Начать новую тему Ответить на тему  [ 1 сообщение ] 




Для Мосгорсуда, Роскомнадзора и рекламодателей:: mosgorsud-torrent[собачка]yandex.ru