Торрент файл
скачать торрент магнет ссылка Добавлен: 10 янв 2012, 19:32
Размер: 1.48 ГБ
Сидеров: 578
Личеров: 107
Автор

СообщениеДобавлено: 10 янв 2012, 19:32 

Не в сети
Супермодератор
Аватара пользователя
Дата регистрации:
11 апр 2010, 18:10
Спасибо: 5798 / 7
Сообщения: 56779
[b]Не бойся темноты / Don't Be Afraid of the Dark[/b]


Перевод: Любительский (одноголосый) [den904]
Субтитры: отсутствуют
Формат: HDRip-AVC, MKV, H.264, AC3

Страна:США, Мексика, Австралия

Режиссер: Трой Никси
Жанр: ужасы, фэнтези, триллер
Продолжительность: 01:39:32
Год выпуска: 2010

В ролях: Кэти Холмс, Гай Пирс, Бэйли Мэдисон, Джек Томпсон, Брюс Глисон, Эдвина Ричард, Гарри МакДональд, Кэролин Шекспир-Аллен, Джулия Блейк, Дэвид Точчи.

Описание: Салли Хёрст — одинокая замкнутая девочка, которая приезжает на Род Айленд, чтобы пожить со своим отцом и его девушкой в старинном особняке девятнадцатого века, который они реставрируют. Исследуя обветшавший дом, Салли находит потайной подвал, куда никто не заглядывал с момента загадочного исчезновения архитектора особняка, произошедшего больше века назад. Сама того не желая, Салли выпускает на свободу древние порождения тьмы, которые собираются затащить ее в страшную бездну, скрывающуюся под полом старого дома. Теперь ей предстоит убедить Алекса и Ким, что это не плод ее фантазии — пока отталкивающие существа не поглотили их всех.



Видео: 1024x432 (2.35:1), 23.976 fps, AVC MPEG-4 High@L4.1 ~1504 kbps avg, 0.142 bit/pixel
Аудио #1: русский48 kHz, AC3 Dolby Digital, 2/0 (L, R) ch, ~192 kbps avg [Любительский (одноголосый)]
Аудио #2: английский48 kHz, AC3 Dolby Digital, 3/2 (L,C,R,l,r) + LFE ch, ~384 kbps avg [оригинал]

Рип от: __


General
Unique ID: 241142865579554476803398479856932854030 (0xB56A6D33A8A848FA890686DEF4CD990E)
Complete name: D:\Мои рипы\Dont.be.afraid.of.the.dark.L1.HDRip.mkv
Format: Matroska
Format version: Version 2
File size: 1.48 GiB
Duration: 1h 39mn
Overall bit rate: 2 123 Kbps
Movie name: Don't.be.afraid.of.the.dark.S.I.D
Encoded date: UTC 2012-01-07 18:08:01
Writing application: mkvmerge v2.9.8 ('C'est le bon') built on Aug 13 2009 12:49:06
Writing library: libebml v0.7.7 + libmatroska v0.8.1

Video
ID: 1
Format: AVC
Format/Info: Advanced Video Codec
Format profile: High@L4.1
Format settings, CABAC: Yes
Format settings, ReFrames: 8 frames
Codec ID: V_MPEG4/ISO/AVC
Duration: 1h 39mn
Bit rate: 1 504 Kbps
Nominal bit rate: 1 592 Kbps
Width: 1 024 pixels
Height: 432 pixels
Display aspect ratio: 2.35:1
Frame rate: 23.976 fps
Color space: YUV
Chroma subsampling: 4:2:0
Bit depth: 8 bits
Scan type: Progressive
Bits/(Pixel*Frame): 0.142
Stream size: 1.05 GiB (71%)
Writing library: x264 core 119 r2106 07efeb4
Encoding settings: cabac=1 / ref=8 / deblock=1:-2:-2 / analyse=0x3:0x111 / me=umh / subme=0 / psy=1 / psy_rd=1.00:0.10 / mixed_ref=1 / me_range=16 / chroma_me=1 / trellis=2 / 8x8dct=1 / cqm=0 / deadzone=21,11 / fast_pskip=0 / chroma_qp_offset=-1 / threads=6 / sliced_threads=0 / nr=0 / decimate=1 / interlaced=0 / bluray_compat=0 / constrained_intra=0 / bframes=5 / b_pyramid=2 / b_adapt=2 / b_bias=0 / direct=1 / weightb=1 / open_gop=0 / weightp=2 / keyint=250 / keyint_min=23 / scenecut=40 / intra_refresh=0 / rc_lookahead=50 / rc=abr / mbtree=1 / bitrate=1592 / ratetol=1.0 / qcomp=0.60 / qpmin=0 / qpmax=69 / qpstep=4 / ip_ratio=1.40 / aq=1:1.00
Language: English
Default: Yes
Forced: No

Audio #1
ID: 2
Format: AC-3
Format/Info: Audio Coding 3
Mode extension: CM (complete main)
Codec ID: A_AC3
Duration: 1h 39mn
Bit rate mode: Constant
Bit rate: 192 Kbps
Channel(s): 2 channels
Channel positions: Front: L R
Sampling rate: 48.0 KHz
Bit depth: 16 bits
Compression mode: Lossy
Stream size: 137 MiB (9%)
Title: den904
Language: Russian
Default: Yes
Forced: No

Audio #2
ID: 3
Format: AC-3
Format/Info: Audio Coding 3
Mode extension: CM (complete main)
Codec ID: A_AC3
Duration: 1h 39mn
Bit rate mode: Constant
Bit rate: 384 Kbps
Channel(s): 6 channels
Channel positions: Front: L C R, Side: L R, LFE
Sampling rate: 48.0 KHz
Bit depth: 16 bits
Compression mode: Lossy
Stream size: 273 MiB (18%)
Title: original
Language: English
Default: No
Forced: No








Поделиться:




реклама партнёра


Вернуться к началу
 Профиль Отправить личное сообщение  
 
   Похожие торренты   Автор   Торрент   Размер 
В этой теме нет новых непрочитанных сообщений. Из темноты / Out of the Dark [Ужасы, триллер, 2014] HDRip-AVC, Dvo

salma3

209 | 7

1.45 ГБ

В этой теме нет новых непрочитанных сообщений. Из темноты / Out of the Dark (Йуис Килес) [ужасы, триллер, 2014] HDRip, Dub [Официальный]

Dracon

81 | 1

1.37 ГБ

В этой теме нет новых непрочитанных сообщений. Из темноты / From the Dark [Ужасы, 2015] HDRip, Avo

salma3

723 | 31

1.5 ГБ

В этой теме нет новых непрочитанных сообщений. Из темноты / From the Dark [Ужасы, триллер, 2014] BDRip 720p, Dvo+Sub

salma3

875 | 89

4.77 ГБ

В этой теме нет новых непрочитанных сообщений. Из темноты / Out of the Dark (Йуис Килес) [2014, Ужасы, триллер, BDRip 1080p] Dub [Официальный]

Dracon

114 | 17

6.91 ГБ

В этой теме нет новых непрочитанных сообщений. Из темноты / Out of the Dark (Йуис Килес) [ужасы, триллер, 2014] BDRip 720p, Dub [Официальный]

Dracon

16 | 1

4.61 ГБ

В этой теме нет новых непрочитанных сообщений. Крестовые походы / Dark Relic [ужасы, фантастика, фэнтези, 2010] HDRip, Mvo

salma3

4 | 2

1.37 ГБ


Начать новую тему Ответить на тему  [ 1 сообщение ] 




Для Мосгорсуда, Роскомнадзора и рекламодателей:: mosgorsud-torrent[собачка]yandex.ru