Торрент файл
скачать торрент магнет ссылка Добавлен: 10 янв 2012, 19:07
Размер: 6.13 ГБ
Сидеров: 63
Личеров: 8
Автор

СообщениеДобавлено: 10 янв 2012, 19:07 

Не в сети
Супермодератор
Аватара пользователя
Дата регистрации:
11 апр 2010, 18:10
Спасибо: 5802 / 7
Сообщения: 56779
Черепашки-ниндзя/ Teenage Mutant Ninja Turtles


Перевод: Профессиональный (многоголосый, закадровый)
Cубтитры:отсутствуют
Формат: HDRip-AVC, MKV, H.264, AC3
Страна: США, Гонконг
Режиссер: Стив Баррон
Жанр:боевик, приключения, фантастика, комедия, криминал, драма, семейный
Продолжительность: 01:33:33
Год выпуска: 1990

В ролях: Джудит Хоаг, Элиас Котеас, Джош Пэйс, Рэймонд Серра, Дэвид Форман, Мишлен Систи, Лейф Тильден, Майкл Терни, Джей Пэттерсон, Джеймс Саито

Описание: Четыре черепашки и крыса в канализационных трубах Нью-Йорка вляпались в радиационные отходы, мутировали и превратились в человеческого роста разумных черепашек, а крыса, которая раньше жила у японского мастера ниндзя-цу, обучила их боевым искусствам.
Черепашки Леонардо, Рафаэль, Микеланджело и Донателло подружились с тележурналисткой и помогли остановить рост молодежной преступности.




Видео: 1280х720 (16:9), 23,976 fps, MPEG4 AVC (x264) High@L4.0, ~2 672 Kbps avg, 0.125 bits/pixel
Аудио: Русский: 48.0 kHz, AC3, 6 ch, ~384 kbps avg

    Релиз Группа | Автор Рипов:
    Бюджет Фильма: 13 500 000
    Кассовые сборы: $201 965 915

Общее
Уникальный идентификатор: 222867258506051445036660526840649073145 (0xA7AAAC34A0999A0E9CEAC06D1EAFC1F9)
Полное имя: E:\Фильмы\tmnt_trilogy_[tfile.ru]\Teenage.Mutant.Ninj.Turtles.1990.mkv
Формат: Matroska
Размер файла: 2,04 Гбайт
Продолжительность: 1 ч. 33 м.
Общий поток: 3127 Кбит/сек
Название фильма: Rip by herrower
Дата кодирования: UTC 2011-02-08 11:17:26
Программа кодирования: mkvmerge v3.0.0 ('Hang up your Hang-Ups') built on Dec 12 2009 15:20:35
Библиотека кодирования: libebml v0.7.9 + libmatroska v0.8.1

Видео
Идентификатор: 1
Формат: AVC
Формат/Информация: Advanced Video Codec
Профиль формата: High@L4.0
Параметр CABAC формата: Да
Параметр ReFrames формата: 3 кадра
Параметры GOP формата: M=4, N=24
Идентификатор кодека: V_MPEG4/ISO/AVC
Продолжительность: 1 ч. 33 м.
Вид битрейта: Переменный
Битрейт: 2762 Кбит/сек
Максимальный битрейт: 17,5 Мбит/сек
Ширина: 1280 пикс.
Высота: 720 пикс.
Соотношение сторон: 16:9
Частота кадров: 23,976 кадр/сек
Цветовое пространство: YUV
Подвыборка цветности: 4:2:0
Битовая глубина: 8 бит
Тип развёртки: Прогрессивная
Бит/(Пиксели*Кадры): 0.125
Размер потока: 1,75 Гбайт (86%)
Библиотека кодирования: x264 core 112 r1867 22bfd31
Настройки программы: cabac=1 / ref=1 / deblock=1:0:0 / analyse=0x3:0x3 / me=dia / subme=1 / psy=1 / psy_rd=0.00:0.00 / mixed_ref=0 / me_range=16 / chroma_me=1 / trellis=0 / 8x8dct=1 / cqm=0 / deadzone=21,11 / fast_pskip=1 / chroma_qp_offset=0 / threads=3 / sliced_threads=0 / nr=0 / decimate=1 / interlaced=0 / constrained_intra=0 / bframes=3 / b_pyramid=1 / b_adapt=1 / b_bias=0 / direct=1 / weightb=1 / open_gop=0 / weightp=1 / keyint=24 / keyint_min=1 / scenecut=40 / intra_refresh=0 / rc_lookahead=0 / rc=abr / mbtree=0 / bitrate=2762 / ratetol=1.0 / qcomp=0.60 / qpmin=0 / qpmax=51 / qpstep=4 / vbv_maxrate=17500 / vbv_bufsize=14500 / nal_hrd=vbr / ip_ratio=1.10 / pb_ratio=1.10 / aq=1:1.00

Аудио
Идентификатор: 2
Формат: AC-3
Формат/Информация: Audio Coding 3
Расширение режима: CM (complete main)
Идентификатор кодека: A_AC3
Продолжительность: 1 ч. 33 м.
Вид битрейта: Постоянный
Битрейт: 384 Кбит/сек
Каналы: 6 каналов
Расположение каналов: Front: L C R, Side: L R, LFE
Частота: 48,0 КГц
Битовая глубина: 16 бит
Метод сжатия: С потерями
Размер потока: 257 Мбайт (12%)





[br][br]

Черепашки-ниндзя 2: Тайна изумрудного зелья / Teenage Mutant Ninja Turtles II: The Secret of the Ooze


Перевод: Профессиональный (многоголосый, закадровый)
Cубтитры:отсутствуют
Формат: HDRip-AVC, MKV, H.264, AC3
Страна: США, Гонконг
Режиссер: Майкл Прессман
Жанр:боевик, приключения, фантастика, комедия, криминал, драма, семейный
Продолжительность: 01:28:33
Год выпуска: 1991

В ролях: Пейдж Турко, Марк Казо, Дэвид Уорнер, Лейф Тильден, Кенн Скотт, Кевин Клэш, Эрни Рейес мл., Франсуа Чау, Тоширо Обата

Описание: И снова Черепашки сражаются со злодеями из клана Футов и их главарем Шредером. Благодаря Эйприл О`Нил, профессору Джордану Пери и разносчику пиццы Кено черепашкам удается остановить распространение мутирующего вещества мутагена и спасти жителей Нью-Йорка от страшных мутантов Токка и Разара.



Видео: 1280х688 (1,86:1), 23,976 fps, MPEG4 AVC (x264) High@L4.0, ~2 958 Kbps avg, 0.140 bits/pixel
Аудио#1: Русский: 48.0 kHz, AC3, 2 ch, ~192 kbps avg [Профессиональный (многоголосный закадровый)]
Аудио#2: Русский: 48.0 kHz, AC3, 2 ch, ~192 kbps avg [Профессиональный (многоголосный закадровый)]

    Релиз Группа | Автор Рипов:
    Бюджет Фильма: $25 500 000
    Кассовые сборы: $78 965 915

Общее
Уникальный идентификатор: 203001418964410543953281734454955205062 (0x98B8A6B201B2EC358B34B49FCF3BE1C6)
Полное имя: E:\Фильмы\tmnt_trilogy_[tfile.ru]\Teenage.Mutant.Ninj.Turtles.2.1991.mkv
Формат: Matroska
Размер файла: 2,04 Гбайт
Продолжительность: 1 ч. 28 м.
Общий поток: 3302 Кбит/сек
Название фильма: Rip by herrower
Дата кодирования: UTC 2011-02-08 10:53:54
Программа кодирования: mkvmerge v3.0.0 ('Hang up your Hang-Ups') built on Dec 12 2009 15:20:35
Библиотека кодирования: libebml v0.7.9 + libmatroska v0.8.1

Видео
Идентификатор: 3
Формат: AVC
Формат/Информация: Advanced Video Codec
Профиль формата: High@L4.0
Параметр CABAC формата: Да
Параметр ReFrames формата: 3 кадра
Параметры GOP формата: M=4, N=24
Идентификатор кодека: V_MPEG4/ISO/AVC
Продолжительность: 1 ч. 28 м.
Вид битрейта: Переменный
Битрейт: 2958 Кбит/сек
Максимальный битрейт: 17,5 Мбит/сек
Ширина: 1280 пикс.
Высота: 688 пикс.
Соотношение сторон: 1,860
Частота кадров: 23,976 кадр/сек
Цветовое пространство: YUV
Подвыборка цветности: 4:2:0
Битовая глубина: 8 бит
Тип развёртки: Прогрессивная
Бит/(Пиксели*Кадры): 0.140
Размер потока: 1,76 Гбайт (86%)
Библиотека кодирования: x264 core 112 r1867 22bfd31
Настройки программы: cabac=1 / ref=1 / deblock=1:0:0 / analyse=0x3:0x3 / me=dia / subme=1 / psy=1 / psy_rd=0.00:0.00 / mixed_ref=0 / me_range=16 / chroma_me=1 / trellis=0 / 8x8dct=1 / cqm=0 / deadzone=21,11 / fast_pskip=1 / chroma_qp_offset=0 / threads=3 / sliced_threads=0 / nr=0 / decimate=1 / interlaced=0 / constrained_intra=0 / bframes=3 / b_pyramid=1 / b_adapt=1 / b_bias=0 / direct=1 / weightb=1 / open_gop=0 / weightp=1 / keyint=24 / keyint_min=1 / scenecut=40 / intra_refresh=0 / rc_lookahead=0 / rc=abr / mbtree=0 / bitrate=2958 / ratetol=1.0 / qcomp=0.60 / qpmin=0 / qpmax=51 / qpstep=4 / vbv_maxrate=17500 / vbv_bufsize=14500 / nal_hrd=vbr / ip_ratio=1.10 / pb_ratio=1.10 / aq=1:1.00

Аудио #1
Идентификатор: 1
Формат: AC-3
Формат/Информация: Audio Coding 3
Расширение режима: CM (complete main)
Идентификатор кодека: A_AC3
Продолжительность: 1 ч. 28 м.
Вид битрейта: Постоянный
Битрейт: 192 Кбит/сек
Каналы: 2 канала
Расположение каналов: Front: L R
Частота: 48,0 КГц
Битовая глубина: 16 бит
Метод сжатия: С потерями
Размер потока: 122 Мбайт (6%)

Аудио #2
Идентификатор: 2
Формат: AC-3
Формат/Информация: Audio Coding 3
Расширение режима: CM (complete main)
Идентификатор кодека: A_AC3
Продолжительность: 1 ч. 28 м.
Вид битрейта: Постоянный
Битрейт: 192 Кбит/сек
Каналы: 2 канала
Расположение каналов: Front: L R
Частота: 48,0 КГц
Битовая глубина: 16 бит
Метод сжатия: С потерями
Размер потока: 122 Мбайт (6%)





[br][br]

Черепашки-ниндзя 3/ Teenage Mutant Ninja Turtles III


Перевод: Профессиональный (многоголосый, закадровый)
Cубтитры:отсутствуют
Формат: HDRip-AVC, MKV, H.264, AC3
Страна: США, Гонконг
Режиссер: Стюарт Гиллард
Жанр:боевик, приключения, фантастика, комедия, криминал, драма, семейный
Продолжительность: 01:35:46
Год выпуска: 1993

В ролях: Элиас Котеас, Пейдж Турко, Стюарт Уилсон, Саб Симоно, Вивиан Ву, Марк Казо, Мэтт Хилл, Джим Рапоса, Дэвид Фрайзер, Генри Хаяши

Описание: Эйприл где-то на распродаже купила Сплинтеру старинный японский скипетр, и ещё всяких других подарков для своих друзей черепашек. Как выяснилось, этот скипетр — не просто обычный антиквариат, а прообраз машины времени. Но он работает только в том случае, когда вес путешественников во времени одинаков с обоих сторон.
Так случилось, что скипетр перенес Эйприл в феодальную Японию, в 1393-й год. Следом за ней отправились и черепашки, но вот беда, вместо того, чтобы попасть в храм, где по идее должен был находится скипетр, они оказываются посреди поля сражения. Во всей этой неразберихе теряется Микеланджело со скипетром. И теперь черепашкам нужно не только спасти Эйприл, но и вернуть скипетр. В нашем времени в этот момент тоже совсем не скучно.




Видео: 1280х720 (16:9), 23,976 fps, MPEG4 AVC (x264) High@L4.0, ~2 682 Kbps avg, 0.121 bits/pixel
Аудио#1: Русский: 48.0 kHz, AC3, 2 ch, ~192 kbps avg [Профессиональный (многоголосный закадровый)]
Аудио#2: Русский: 48.0 kHz, AC3, 2 ch, ~192 kbps avg [Профессиональный (многоголосный закадровый)]

    Релиз Группа | Автор Рипов:
    Бюджет Фильма: $21 500 000
    Кассовые сборы: $42 965 915

Общее
Уникальный идентификатор: 236681215409940015859042806335471468834 (0xB20F24DD64BD46839829497CEFD5C122)
Полное имя: E:\Фильмы\tmnt_trilogy_[tfile.ru]\Teenage.Mutant.Ninj.Turtles.3.1993.mkv
Формат: Matroska
Размер файла: 2,04 Гбайт
Продолжительность: 1 ч. 35 м.
Общий поток: 3056 Кбит/сек
Название фильма: Rip by herrower
Дата кодирования: UTC 2011-02-08 10:44:34
Программа кодирования: mkvmerge v3.0.0 ('Hang up your Hang-Ups') built on Dec 12 2009 15:20:35
Библиотека кодирования: libebml v0.7.9 + libmatroska v0.8.1

Видео
Идентификатор: 1
Формат: AVC
Формат/Информация: Advanced Video Codec
Профиль формата: High@L4.0
Параметр CABAC формата: Да
Параметр ReFrames формата: 3 кадра
Параметры GOP формата: M=4, N=24
Идентификатор кодека: V_MPEG4/ISO/AVC
Продолжительность: 1 ч. 35 м.
Вид битрейта: Переменный
Битрейт: 2682 Кбит/сек
Максимальный битрейт: 17,5 Мбит/сек
Ширина: 1280 пикс.
Высота: 720 пикс.
Соотношение сторон: 16:9
Частота кадров: 23,976 кадр/сек
Цветовое пространство: YUV
Подвыборка цветности: 4:2:0
Битовая глубина: 8 бит
Тип развёртки: Прогрессивная
Бит/(Пиксели*Кадры): 0.121
Размер потока: 1,75 Гбайт (85%)
Библиотека кодирования: x264 core 112 r1867 22bfd31
Настройки программы: cabac=1 / ref=1 / deblock=1:0:0 / analyse=0x3:0x3 / me=dia / subme=1 / psy=1 / psy_rd=0.00:0.00 / mixed_ref=0 / me_range=16 / chroma_me=1 / trellis=0 / 8x8dct=1 / cqm=0 / deadzone=21,11 / fast_pskip=1 / chroma_qp_offset=0 / threads=3 / sliced_threads=0 / nr=0 / decimate=1 / interlaced=0 / constrained_intra=0 / bframes=3 / b_pyramid=1 / b_adapt=1 / b_bias=0 / direct=1 / weightb=1 / open_gop=0 / weightp=1 / keyint=24 / keyint_min=1 / scenecut=40 / intra_refresh=0 / rc_lookahead=0 / rc=abr / mbtree=0 / bitrate=2682 / ratetol=1.0 / qcomp=0.60 / qpmin=0 / qpmax=51 / qpstep=4 / vbv_maxrate=17500 / vbv_bufsize=14500 / nal_hrd=vbr / ip_ratio=1.10 / pb_ratio=1.10 / aq=1:1.00

Аудио #1
Идентификатор: 2
Формат: AC-3
Формат/Информация: Audio Coding 3
Расширение режима: CM (complete main)
Идентификатор кодека: A_AC3
Продолжительность: 1 ч. 35 м.
Вид битрейта: Постоянный
Битрейт: 192 Кбит/сек
Каналы: 2 канала
Расположение каналов: Front: L R
Частота: 48,0 КГц
Битовая глубина: 16 бит
Метод сжатия: С потерями
Размер потока: 132 Мбайт (6%)

Аудио #2
Идентификатор: 3
Формат: AC-3
Формат/Информация: Audio Coding 3
Расширение режима: CM (complete main)
Идентификатор кодека: A_AC3
Продолжительность: 1 ч. 35 м.
Вид битрейта: Постоянный
Битрейт: 192 Кбит/сек
Каналы: 2 канала
Расположение каналов: Front: L R
Частота: 48,0 КГц
Битовая глубина: 16 бит
Метод сжатия: С потерями
Размер потока: 132 Мбайт (6%)





Поделиться:




реклама партнёра


Вернуться к началу
 Профиль Отправить личное сообщение  
 
   Похожие торренты   Автор   Торрент   Размер 
В этой теме нет новых непрочитанных сообщений. Черепашки-ниндзя / Teenage Mutant Ninja Turtles [фантастика, фэнтези, боевик, комедия, приключения, 2014] HDRip, Dub [iPad]

salma3

177 | 16

1.35 ГБ

В этой теме нет новых непрочитанных сообщений. Черепашки-ниндзя / Teenage Mutant Ninja Turtles [фантастика, фэнтези, боевик, комедия, приключения, 2014] HDRip, Dub [iTunes Russia]

Dracon

2233 | 59

1.41 ГБ

В этой теме нет новых непрочитанных сообщений. Черепашки-ниндзя 2 / Teenage Mutant Ninja Turtles 2 [Фантастика, Боевик, Фэнтези, Приключения, 2016] HD 1080, Dub [Трейлер]

salma3

525 | 15

111.78 МБ

В этой теме нет новых непрочитанных сообщений. Черепашки-ниндзя / Teenage Mutant Ninja Turtles [фантастика, фэнтези, боевик, комедия, приключения, 2014] HD 720p, Dub [Тизер]

salma3

564 | 10

16.44 МБ

В этой теме нет новых непрочитанных сообщений. Черепашки-ниндзя / Teenage Mutant Ninja Turtles [фантастика, фэнтези, боевик, комедия, приключения, 2014] Blu-Ray 1080p, Dub+Sub [Лицензия | 3D]

Dracon

16 | 12

41.7 ГБ

В этой теме нет новых непрочитанных сообщений. Черепашки-ниндзя / Teenage Mutant Ninja Turtles [фантастика, фэнтези, боевик, комедия, приключения, 2014] BDRip-AVC, Dub+Sub [Лицензия]

Dracon

227 | 5

3 ГБ

В этой теме нет новых непрочитанных сообщений. Черепашки-ниндзя 2 / Teenage Mutant Ninja Turtles: Out of the Shadows [фантастика, боевик, комедия, приключения, 2016] BDRip, Dub [Лицензия]

salma3

1231 | 50

1.46 ГБ


Начать новую тему Ответить на тему  [ 1 сообщение ] 




Для Мосгорсуда, Роскомнадзора и рекламодателей:: mosgorsud-torrent[собачка]yandex.ru