Торрент файл
скачать торрент магнет ссылка Добавлен: 10 янв 2012, 19:07
Размер: 10.42 ГБ
Сидеров: 21
Личеров: 31
Автор

СообщениеДобавлено: 10 янв 2012, 19:07 

Не в сети
Супермодератор
Аватара пользователя
Дата регистрации:
11 апр 2010, 18:10
Спасибо: 5801 / 7
Сообщения: 56779
Побег из Шоушенка / The Shawshank Redemption


«Страх - это кандалы. Надежда - это свобода.»

Перевод: Профессиональный (многоголосый, закадровый), cубтитры: отсутствуют
Формат: HDRip-AVC, MKV, H.264, AC3
Страна: США
Режиссер: Фрэнк Дарабонт
Жанр: драма, криминал
Продолжительность: 02:22:33
Год выпуска: 1994

В ролях: Тим Роббинс ,Морган Фриман,Боб Гантон,Уильям Сэдлер,Клэнси Браун,Джил Беллоуз,Марк Ролстон,Джеймс Уитмор,Джеффри ДеМунн,Ларри Бранденбург

Описание: Шоушенк — название тюрьмы. И если тебе нет еще 30-ти, а ты получаешь пожизненное, то приготовься к худшему: для тебя выхода из Шоушенка не будет!
Актриса Рита Хэйворт — любимица всей Америки. Энди Дюфрейну она тоже очень нравилась. Рита никогда не слышала о существовании Энди, однако жизнь Дюфрейну, бывшему вице-президенту крупного банка, осужденному за убийство жены и ее любовника, Рита Хэйворт все-таки спасла.




Видео: 1024 x 576 (1.77, 23.976 fps, AVC, х264 High@L4.1, ~ 1698Kbps Kbps, 0.120 bit/pixel
Аудио: 48 kHz, AC3 Dolby Digital, 3/2 (L,C,R,l,r) + LFE ch, ~384 kbps


Рип: jeenart

Toп250: #1

Оскар, 1995 год
Номинации (7):
Лучший фильм
Лучшая мужская роль (Морган Фриман)
Лучший адаптированный сценарий
Лучшая работа оператора
Лучший звук
Лучший монтаж
Лучший оригинальный саундтрек

Золотой глобус, 1995 год
Номинации (2):
Лучшая мужская роль (драма) (Морган Фриман)
Лучший сценарий
General
Unique ID: 206830627956597241044099300189310963276 (0x9B9A21465B3979FF88E16EC7ECD24E4C)
Complete name: F:\Мои релизы\Все релизы 8\top_5_kinopoisk_[tfile.ru]\the_shawshank_redemption_[tfile.ru].mkv
Format: Matroska
File size: 2.07 GiB
Duration: 2h 22mn
Overall bit rate: 2 083 Kbps
Encoded date: UTC 2011-05-31 04:02:45
Writing application: mkvmerge v4.6.0 ('Still Crazy After All These Years') сборка от Apr1 2011 21:01:49
Writing library: libebml v1.2.0 + libmatroska v1.1.0

Video
ID: 1
Format: AVC
Format/Info: Advanced Video Codec
Format profile: High@L4.1
Format settings, CABAC: Yes
Format settings, ReFrames: 3 frames
Codec ID: V_MPEG4/ISO/AVC
Duration: 2h 22mn
Bit rate: 1 698 Kbps
Width: 1 024 pixels
Height: 576 pixels
Display aspect ratio: 16:9
Frame rate: 23.976 fps
Color space: YUV
Chroma subsampling: 4:2:0
Bit depth: 8 bits
Scan type: Progressive
Bits/(Pixel*Frame): 0.120
Stream size: 1.65 GiB (80%)
Writing library: x264 core 115 r1937 aa21558
Encoding settings: cabac=1 / ref=3 / deblock=1:-1:-1 / analyse=0x3:0x113 / me=dia / subme=7 / psy=1 / psy_rd=1.00:0.10 / mixed_ref=1 / me_range=16 / chroma_me=1 / trellis=1 / 8x8dct=1 / cqm=0 / deadzone=21,11 / fast_pskip=1 / chroma_qp_offset=-3 / threads=6 / sliced_threads=0 / nr=0 / decimate=1 / interlaced=0 / bluray_compat=0 / constrained_intra=0 / bframes=1 / b_pyramid=0 / b_adapt=0 / b_bias=0 / direct=0 / weightb=1 / open_gop=0 / weightp=0 / keyint=250 / keyint_min=23 / scenecut=40 / intra_refresh=0 / rc_lookahead=40 / rc=2pass / mbtree=1 / bitrate=1698 / ratetol=1.0 / qcomp=0.60 / qpmin=0 / qpmax=69 / qpstep=4 / cplxblur=20.0 / qblur=0.5 / ip_ratio=1.40 / aq=1:1.00

Audio
ID: 2
Format: AC-3
Format/Info: Audio Coding 3
Mode extension: CM (complete main)
Codec ID: A_AC3
Duration: 2h 22mn
Bit rate mode: Constant
Bit rate: 384 Kbps
Channel(s): 6 channels
Channel positions: Front: L C R, Side: L R, LFE
Sampling rate: 48.0 KHz
Bit depth: 16 bits
Compression mode: Lossy
Stream size: 392 MiB (18%)






















Зеленая миля / The Green Mile


«Walk a mile you'll never forget.»

Перевод: Профессиональный (полное дублирование), cубтитры: отсутствуют
Формат: HDRip-AVC, MKV, H.264, AC3
Страна: США
Режиссер: Фрэнк Дарабонт
Жанр: фэнтези, драма, криминал, детектив
Продолжительность: 03:08:37
Год выпуска: 1999

В ролях: Том Хэнкс, Дэвид Морс, Бонни Хант, Майкл Кларк Дункан, Джеймс Кромуэлл, Майкл Джитер, Грэм Грин, Даг Хатчисон, Сэм Рокуэлл, Бэрри Пеппер

Описание: Обвиненный в страшном преступлении, Джон Коффи оказывается в блоке смертников тюрьмы «Холодная гора». Вновь прибывший обладал поразительным ростом и был пугающе спокоен, что, впрочем, никак не влияло на отношение к нему начальника блока Пола Эджкомба, привыкшего исполнять приговор.
Гигант удивил всех позже, когда выяснилось, что он обладает невероятной магической силой…




Видео: 1024 x 576 (1.77, 23.976 fps, AVC, х264 High@L4.1, ~ 1203Kbps Kbps, 0.085 bit/pixel
Аудио: 48 kHz, AC3 Dolby Digital, 3/2 (L,C,R,l,r) + LFE ch, ~384 kbps


Рип: jeenart

Toп250: #2

Оскар, 2000 год
Номинации (4):
Лучший фильм
Лучшая мужская роль второго плана (Майкл Кларк Дункан)
Лучший адаптированный сценарий
Лучший звук

Золотой глобус, 2000 год
Номинации (1):
Лучшая мужская роль второго плана (Майкл Кларк Дункан)

Премия канала «MTV», 2000 год
Номинации (1):
Мужской прорыв года (Майкл Кларк Дункан)
General
Unique ID: 199604914090239111283906124684719524922 (0x962A821373DE73ECB142CBA284D78C3A)
Complete name: F:\Мои релизы\Все релизы 8\top_5_kinopoisk_[tfile.ru]\green_mile_[tfile.ru].mkv
Format: Matroska
File size: 2.09 GiB
Duration: 3h 8mn
Overall bit rate: 1 588 Kbps
Encoded date: UTC 2011-05-30 03:36:16
Writing application: mkvmerge v4.6.0 ('Still Crazy After All These Years') сборка от Apr1 2011 21:01:49
Writing library: libebml v1.2.0 + libmatroska v1.1.0

Video
ID: 1
Format: AVC
Format/Info: Advanced Video Codec
Format profile: High@L4.1
Format settings, CABAC: Yes
Format settings, ReFrames: 3 frames
Codec ID: V_MPEG4/ISO/AVC
Duration: 3h 8mn
Bit rate: 1 203 Kbps
Width: 1 024 pixels
Height: 576 pixels
Display aspect ratio: 16:9
Frame rate: 23.976 fps
Color space: YUV
Chroma subsampling: 4:2:0
Bit depth: 8 bits
Scan type: Progressive
Bits/(Pixel*Frame): 0.085
Stream size: 1.55 GiB (74%)
Writing library: x264 core 115 r1937 aa21558
Encoding settings: cabac=1 / ref=3 / deblock=1:-1:-1 / analyse=0x3:0x113 / me=dia / subme=7 / psy=1 / psy_rd=1.00:0.10 / mixed_ref=1 / me_range=16 / chroma_me=1 / trellis=1 / 8x8dct=1 / cqm=0 / deadzone=21,11 / fast_pskip=1 / chroma_qp_offset=-3 / threads=6 / sliced_threads=0 / nr=0 / decimate=1 / interlaced=0 / bluray_compat=0 / constrained_intra=0 / bframes=1 / b_pyramid=0 / b_adapt=0 / b_bias=0 / direct=0 / weightb=1 / open_gop=0 / weightp=0 / keyint=250 / keyint_min=23 / scenecut=40 / intra_refresh=0 / rc_lookahead=40 / rc=2pass / mbtree=1 / bitrate=1203 / ratetol=1.0 / qcomp=0.60 / qpmin=0 / qpmax=69 / qpstep=4 / cplxblur=20.0 / qblur=0.5 / ip_ratio=1.40 / aq=1:1.00

Audio
ID: 2
Format: AC-3
Format/Info: Audio Coding 3
Mode extension: CM (complete main)
Codec ID: A_AC3
Duration: 3h 8mn
Bit rate mode: Constant
Bit rate: 384 Kbps
Channel(s): 6 channels
Channel positions: Front: L C R, Side: L R, LFE
Sampling rate: 48.0 KHz
Bit depth: 16 bits
Compression mode: Lossy
Stream size: 518 MiB (24%)
























Форрест Гамп / Forrest Gump


«Мир уже никогда не будет прежним, после того как вы увидите его глазами Форреста Гампа.»

Перевод: Авторский (Гаврилов Андрей) , cубтитры: отсутствуют
Формат: HDRip-AVC, MKV, H.264, AC3
Страна: США
Режиссер: Роберт Земекис
Жанр: драма, мелодрама, комедия
Продолжительность: 02:22:09
Год выпуска: 1994

В ролях: Том Хэнкс, Робин Райт Пенн, Гэри Синиз, Майкелти Уильямсон, Сэлли Филд, Ребекка Уильямс, Майкл Коннер Хэмпфри, Харольд Дж. Хертэм, Джордж Келли, Боб Пенни

Описание: От лица главного героя Форреста Гампа, слабоумного безобидного человека с благородным и открытым сердцем, рассказывается история его необыкновенной жизни.
Фантастическим образом превращается он в известного футболиста, героя войны, преуспевающего бизнесмена. Он становится миллиардером, но остается таким же бесхитростным, глупым и добрым. Форреста ждет постоянный успех во всем, а он любит девочку, с которой дружил в детстве, но взаимность приходит слишком поздно.




Видео: 1072 x 456 (2.351), 23.976 fps, AVC, х264 High@L4.1, ~ 1650 Kbps Kbps, 0.141 bit/pixel
Аудио: 48 kHz, AC3 Dolby Digital, 3/2 (L,C,R,l,r) + LFE ch, ~448 kbps


Рип: jeenart

Toп250: #3

Оскар, 1995 год
Победитель (6):
Лучший фильм
Лучшая мужская роль (Том Хэнкс)
Лучший режиссер (Роберт Земекис)
Лучший адаптированный сценарий
Лучший монтаж
Лучшие визуальные эффекты

Номинации (7):
Лучшая мужская роль второго плана (Гэри Синиз)
Лучшая работа оператора
Лучшие декорации
Лучший звук
Лучший монтаж звука
Лучший грим
Лучший оригинальный саундтрек

Золотой глобус, 1995 год
Победитель (3):
Лучший фильм (драма)
Лучшая мужская роль (драма) (Том Хэнкс)
Лучший режиссер (Роберт Земекис)
Номинации (4):
Лучшая мужская роль второго плана (Гэри Синиз)
Лучшая женская роль второго плана (Робин Райт)
Лучший сценарий
Лучший саундтрек

Премия канала «MTV», 1995 год
Номинации (3):
Прорыв года (Майкелти Уильямсон)
Лучший фильм
Лучшая мужская роль (Том Хэнкс)

Британская академия, 1995 год
Победитель (1):
Лучшие визуальные эффекты
Номинации (7):
Лучший фильм
Лучшая мужская роль (Том Хэнкс)
Лучшая женская роль второго плана (Салли Филд)
Лучший адаптированный сценарий
Лучшая работа оператора
Лучший монтаж
Премия имени Дэвида Лина за достижения в режиссуре (Роберт Земекис)
General
Unique ID: 213816831654705270797600781357249356392 (0xA0DB9FB5EE0EB42E9E9C450DDA9A626
Complete name: F:\Мои релизы\Все релизы 8\top_5_kinopoisk_[tfile.ru]\forrest_gump_[tfile.ru].mkv
Format: Matroska
File size: 2.08 GiB
Duration: 2h 22mn
Overall bit rate: 2 100 Kbps
Encoded date: UTC 2011-05-29 22:57:32
Writing application: mkvmerge v4.6.0 ('Still Crazy After All These Years') сборка от Apr1 2011 21:01:49
Writing library: libebml v1.2.0 + libmatroska v1.1.0

Video
ID: 1
Format: AVC
Format/Info: Advanced Video Codec
Format profile: High@L4.1
Format settings, CABAC: Yes
Format settings, ReFrames: 3 frames
Codec ID: V_MPEG4/ISO/AVC
Duration: 2h 22mn
Bit rate: 1 650 Kbps
Width: 1 072 pixels
Height: 456 pixels
Display aspect ratio: 2.35:1
Frame rate: 23.976 fps
Color space: YUV
Chroma subsampling: 4:2:0
Bit depth: 8 bits
Scan type: Progressive
Bits/(Pixel*Frame): 0.141
Stream size: 1.60 GiB (77%)
Writing library: x264 core 115 r1937 aa21558
Encoding settings: cabac=1 / ref=3 / deblock=1:-1:-1 / analyse=0x3:0x113 / me=dia / subme=7 / psy=1 / psy_rd=1.00:0.10 / mixed_ref=1 / me_range=16 / chroma_me=1 / trellis=1 / 8x8dct=1 / cqm=0 / deadzone=21,11 / fast_pskip=1 / chroma_qp_offset=-3 / threads=6 / sliced_threads=0 / nr=0 / decimate=1 / interlaced=0 / bluray_compat=0 / constrained_intra=0 / bframes=1 / b_pyramid=0 / b_adapt=0 / b_bias=0 / direct=0 / weightb=1 / open_gop=0 / weightp=0 / keyint=250 / keyint_min=23 / scenecut=40 / intra_refresh=0 / rc_lookahead=40 / rc=2pass / mbtree=1 / bitrate=1650 / ratetol=1.0 / qcomp=0.60 / qpmin=0 / qpmax=69 / qpstep=4 / cplxblur=20.0 / qblur=0.5 / ip_ratio=1.40 / aq=1:1.00

Audio
ID: 2
Format: AC-3
Format/Info: Audio Coding 3
Mode extension: CM (complete main)
Codec ID: A_AC3
Duration: 2h 22mn
Bit rate mode: Constant
Bit rate: 448 Kbps
Channel(s): 6 channels
Channel positions: Front: L C R, Side: L R, LFE
Sampling rate: 48.0 KHz
Bit depth: 16 bits
Compression mode: Lossy
Stream size: 456 MiB (21%)






















Начало / Inception


«Твой разум - место преступления»

Перевод: Профессиональный (полное дублирование), cубтитры: отсутствуют
Формат: HDRip-AVC, MKV, H.264, AC3
Страна: США, Великобритания
Режиссер: Кристофер Нолан
Жанр: фантастика, боевик, триллер, драма, детектив
Продолжительность: 02:28:07
Год выпуска: 2010

В ролях: Леонардо ДиКаприо, Джозеф Гордон-Левитт, Эллен Пейдж, Том Харди, Кен Ватанабе, Дилип Рао, Киллиан Мёрфи, Том Беренджер, Марион Котийяр, Пит Постлетуэйт

Описание: Кобб — талантливый вор, лучший из лучших в опасном искусстве извлечения: он крадет ценные секреты из глубин подсознания во время сна, когда человеческий разум наиболее уязвим. Редкие способности Кобба сделали его ценным игроком в привычном к предательству мире промышленного шпионажа, но они же превратили его в извечного беглеца и лишили всего, что он когда-либо любил.
И вот у Кобба появляется шанс исправить ошибки. Его последнее дело может вернуть все назад, но для этого ему нужно совершить невозможное — инициацию. Вместо идеальной кражи Кобб и его команда спецов должны будут провернуть обратное. Теперь их задача — не украсть идею, а внедрить ее. Если у них получится, это и станет идеальным преступлением.
Но никакое планирование или мастерство не могут подготовить команду к встрече с опасным противником, который, кажется, предугадывает каждый их ход. Врагом, увидеть которого мог бы лишь Кобб.




Видео: 1056 x 440 (1.77, 23.976 fps, AVC, х264 High@L4.1, ~ 1566Kbps Kbps, 0.141 bit/pixel
Аудио: 48 kHz, AC3 Dolby Digital, 3/2 (L,C,R,l,r) + LFE ch, ~448 kbps


Рип: jeenart

Toп250: #4

Оскар, 2011 год
Победитель (4):
Лучшая работа оператора
Лучший звук
Лучший монтаж звука
Лучшие визуальные эффекты
Номинации (4):
Лучший фильм
Лучший сценарий
Лучшие декорации
Лучший саундтрек

Золотой глобус, 2011 год
Номинации (4):
Лучший фильм (драма)
Лучший режиссер (Кристофер Нолан)
Лучший сценарий
Лучший саундтрек

Премия канала «MTV», 2011 год
Номинации (6):
Лучший фильм
Лучший испуг (Эллен Пейдж)
Лучшая драка
Самый безумный эпизод
Лучшая фраза
Самая «крутая» звезда (Джозеф Гордон-Левитт)

Британская академия, 2011 год
Победитель (3):
Лучший звук
Лучшие визуальные эффекты
Лучшая работа художника-постановщика (Ларри Диас, Гай Диас, Дуглас А. Моуат)
Номинации (6):
Лучший фильм
Лучший оригинальный сценарий
Лучшая работа оператора (Уолли Пфистер)
Лучший монтаж
Премия имени Энтони Эскуита за достижения в создании музыки к фильму
Премия имени Дэвида Лина за достижения в режиссуре (Кристофер Нолан)

Сезар, 2011 год
Номинации (1):
Лучший фильм на иностранном языке

Жорж, 2011 год
Победитель (1):
Лучший зарубежный экшн
Номинации (1):
Лучшая зарубежная драма
General
Unique ID: 202248369705588391434574524623156579591 (0x98279E801637CFA3B5ADC1618FDE8D07)
Complete name: F:\Мои релизы\Все релизы 8\top_5_kinopoisk_[tfile.ru]\nachalo_[tfile.ru].mkv
Format: Matroska
File size: 2.09 GiB
Duration: 2h 28mn
Overall bit rate: 2 015 Kbps
Encoded date: UTC 2011-05-30 16:55:48
Writing application: mkvmerge v4.6.0 ('Still Crazy After All These Years') сборка от Apr1 2011 21:01:49
Writing library: libebml v1.2.0 + libmatroska v1.1.0

Video
ID: 1
Format: AVC
Format/Info: Advanced Video Codec
Format profile: High@L4.1
Format settings, CABAC: Yes
Format settings, ReFrames: 3 frames
Codec ID: V_MPEG4/ISO/AVC
Duration: 2h 28mn
Bit rate: 1 566 Kbps
Width: 1 056 pixels
Height: 440 pixels
Display aspect ratio: 2.40:1
Frame rate: 23.976 fps
Color space: YUV
Chroma subsampling: 4:2:0
Bit depth: 8 bits
Scan type: Progressive
Bits/(Pixel*Frame): 0.141
Stream size: 1.58 GiB (76%)
Writing library: x264 core 115 r1937 aa21558
Encoding settings: cabac=1 / ref=3 / deblock=1:-1:-1 / analyse=0x3:0x113 / me=dia / subme=7 / psy=1 / psy_rd=1.00:0.10 / mixed_ref=1 / me_range=16 / chroma_me=1 / trellis=1 / 8x8dct=1 / cqm=0 / deadzone=21,11 / fast_pskip=1 / chroma_qp_offset=-3 / threads=6 / sliced_threads=0 / nr=0 / decimate=1 / interlaced=0 / bluray_compat=0 / constrained_intra=0 / bframes=1 / b_pyramid=0 / b_adapt=0 / b_bias=0 / direct=0 / weightb=1 / open_gop=0 / weightp=0 / keyint=250 / keyint_min=23 / scenecut=40 / intra_refresh=0 / rc_lookahead=40 / rc=2pass / mbtree=1 / bitrate=1566 / ratetol=1.0 / qcomp=0.60 / qpmin=0 / qpmax=69 / qpstep=4 / cplxblur=20.0 / qblur=0.5 / ip_ratio=1.40 / aq=1:1.00

Audio
ID: 2
Format: AC-3
Format/Info: Audio Coding 3
Mode extension: CM (complete main)
Codec ID: A_AC3
Duration: 2h 28mn
Bit rate mode: Constant
Bit rate: 448 Kbps
Channel(s): 6 channels
Channel positions: Front: L C R, Side: L R, LFE
Sampling rate: 48.0 KHz
Bit depth: 16 bits
Compression mode: Lossy
Stream size: 475 MiB (22%)
























Жизнь прекрасна / La Vita è bella


«An unforgettable fable that proves love, family and imagination conquer all»

Перевод: Профессиональный (многоголосый, закадровый), cубтитры: отсутствуют
Формат: HDRip-AVC, MKV, H.264, AC3
Страна: Италия
Режиссер: Роберто Бениньи
Жанр: драма, мелодрама, военный
Продолжительность: 01:56:10
Год выпуска: 1997

В ролях: Роберто Бениньи, Хорст Бучольц, Николетта Браски, Мариса Паредес, Лидия Альфонси, Франческо Гуццо

Описание: Во время II Мировой войны в Италии в концлагерь были отправлены евреи, отец и его маленький сын. Жена, итальянка, добровольно последовала вслед за ними. В лагере отец сказал сыну, что все происходящее вокруг является очень большой игрой за приз в настоящий танк, который достанется тому мальчику, который сможет не попасться на глаза надзирателям. Он сделал все, чтобы сын поверил в игру и остался жив, прячась в бараке.



Видео: 992 x 536 (1.851), 23.976 fps, AVC, х264 High@L4.1, ~ 2112Kbps Kbps, 0.166 bit/pixel
Аудио: 48 kHz, AC3 Dolby Digital, 3/2 (L,C,R,l,r) + LFE ch, ~448 kbps


Рип: jeenart

Toп250: #15

Оскар, 1999 год
Победитель (3):
Лучшая мужская роль (Роберто Бениньи)
Лучший саундтрек к драматическому фильму
Лучший фильм на иностранном языке — «Италия»
Номинации (4):
Лучший фильм
Лучший режиссер (Роберто Бениньи)
Лучший сценарий
Лучший монтаж

Британская академия, 1999 год
Победитель (1):
Лучшая мужская роль (Роберто Бениньи)
Номинации (2):
Лучший фильм на иностранном языке
Лучший оригинальный сценарий

Сезар, 1999 год
Победитель (1):
Лучший фильм на иностранном языке

Каннский кинофестиваль, 1998 год
Победитель (1):
Большой приз жюри
Номинации (1):
Золотая пальмовая ветвь

Европейская киноакадемия, 1998 год
Победитель (2):
Лучший фильм
Лучшая мужская роль (Роберто Бениньи)
General
Unique ID: 223753864346402029754089207410095749675 (0xA8556D3F999BE3EB8DBA27A254BEFA2B)
Complete name: F:\Мои релизы\Все релизы 8\top_5_kinopoisk_[tfile.ru]\life_is_beautiful_[tfile.ru].mkv
Format: Matroska
File size: 2.08 GiB
Duration: 1h 56mn
Overall bit rate: 2 561 Kbps
Encoded date: UTC 2011-05-30 21:28:12
Writing application: mkvmerge v4.6.0 ('Still Crazy After All These Years') сборка от Apr1 2011 21:01:49
Writing library: libebml v1.2.0 + libmatroska v1.1.0

Video
ID: 1
Format: AVC
Format/Info: Advanced Video Codec
Format profile: High@L4.1
Format settings, CABAC: Yes
Format settings, ReFrames: 3 frames
Codec ID: V_MPEG4/ISO/AVC
Duration: 1h 56mn
Bit rate: 2 112 Kbps
Width: 992 pixels
Height: 536 pixels
Display aspect ratio: 1.851
Frame rate: 23.976 fps
Color space: YUV
Chroma subsampling: 4:2:0
Bit depth: 8 bits
Scan type: Progressive
Bits/(Pixel*Frame): 0.166
Stream size: 1.67 GiB (81%)
Writing library: x264 core 115 r1937 aa21558
Encoding settings: cabac=1 / ref=3 / deblock=1:-1:-1 / analyse=0x3:0x113 / me=dia / subme=7 / psy=1 / psy_rd=1.00:0.10 / mixed_ref=1 / me_range=16 / chroma_me=1 / trellis=1 / 8x8dct=1 / cqm=0 / deadzone=21,11 / fast_pskip=1 / chroma_qp_offset=-3 / threads=6 / sliced_threads=0 / nr=0 / decimate=1 / interlaced=0 / bluray_compat=0 / constrained_intra=0 / bframes=1 / b_pyramid=0 / b_adapt=0 / b_bias=0 / direct=0 / weightb=1 / open_gop=0 / weightp=0 / keyint=250 / keyint_min=23 / scenecut=40 / intra_refresh=0 / rc_lookahead=40 / rc=2pass / mbtree=1 / bitrate=2112 / ratetol=1.0 / qcomp=0.60 / qpmin=0 / qpmax=69 / qpstep=4 / cplxblur=20.0 / qblur=0.5 / ip_ratio=1.40 / aq=1:1.00

Audio
ID: 2
Format: AC-3
Format/Info: Audio Coding 3
Mode extension: CM (complete main)
Codec ID: A_AC3
Duration: 1h 56mn
Bit rate mode: Constant
Bit rate: 448 Kbps
Channel(s): 6 channels
Channel positions: Front: L C R, Side: L R, LFE
Sampling rate: 48.0 KHz
Bit depth: 16 bits
Compression mode: Lossy
Stream size: 372 MiB (17%)




















Поделиться:




реклама партнёра


Вернуться к началу
 Профиль Отправить личное сообщение  
 
   Похожие торренты   Автор   Торрент   Размер 
В этой теме нет новых непрочитанных сообщений. Ходячие мертвецы / The Walking Dead (Сезон 6, Серии 1-15 из 16) (Фрэнк Дарабонт, Эрнест Р. Дикерсон) [2015-2016, Ужасы, триллер, фантастика, WEB-DLRip 1080p] [LostFilm , FOX , BaibaKo , HamsterStudio , Jaskier , Uateam]+[Sub Rus, Eng]

Враг Нароода

В этой теме нет новых непрочитанных сообщений. Ходячие мертвецы / The Walking Dead (Сезон 7, Серии 1-6 из 16) (Фрэнк Дарабонт, Эрнест Р. Дикерсон) [2016, Ужасы, триллер, фантастика, WEB-DLRip 1080p] [LostFilm , FOX , BaibaKo , HamsterStudio , Jaskier , Uateam , English]+[Sub Rus, Eng]

Враг Нароода

5 | 4

20.89 ГБ

В этой теме нет новых непрочитанных сообщений. Ходячие мертвецы / The Walking Dead (Сезон 6, Серии 1-14 из 16) (Фрэнк Дарабонт, Эрнест Р. Дикерсон) [2015-2016, Ужасы, триллер, фантастика, WEB-DLRip 1080p] [LostFilm , FOX , BaibaKo , HamsterStudio , Jaskier , Uateam]+[Sub Rus, Eng]

Враг Нароода

В этой теме нет новых непрочитанных сообщений. Ходячие мертвецы / The Walking Dead (Сезон 6, Серии 1-16 из 16) (Фрэнк Дарабонт, Эрнест Р. Дикерсон) [2015-2016, Ужасы, триллер, фантастика, WEB-DLRip 1080p] [LostFilm , FOX , BaibaKo , HamsterStudio , Jaskier , Uateam]+[Sub Rus, Eng]

Враг Нароода

3 | 7

47.93 ГБ

В этой теме нет новых непрочитанных сообщений. Ходячие мертвецы / The Walking Dead (Сезон 6, Серии 1-13 из 16) (Фрэнк Дарабонт, Эрнест Р. Дикерсон) [2015-2016, Ужасы, триллер, фантастика, WEB-DLRip 1080p] [LostFilm , FOX , BaibaKo , HamsterStudio , Jaskier , Uateam]+[Sub Rus, Eng]

Враг Нароода

В этой теме нет новых непрочитанных сообщений. Прогулка среди могил / A Walk Among the Tombstones (Скотт Фрэнк) [2014, детектив, триллер, криминал, драма, HDRip] Dub

Nickolas3435

81 | 4

2.07 ГБ

В этой теме нет новых непрочитанных сообщений. Прогулка среди могил / A Walk Among the Tombstones (Скотт Фрэнк) [2014, детектив, триллер, криминал, драма, HDRip] Dub

Nickolas3435

158 | 4

1.36 ГБ


Начать новую тему Ответить на тему  [ 1 сообщение ] 




Для Мосгорсуда, Роскомнадзора и рекламодателей:: mosgorsud-torrent[собачка]yandex.ru