Торрент файл
скачать торрент магнет ссылка Добавлен: 10 янв 2012, 19:06
Размер: 6.15 ГБ
Сидеров: 13
Личеров: 18
Автор

СообщениеДобавлено: 10 янв 2012, 19:06 

Не в сети
Супермодератор
Аватара пользователя
Дата регистрации:
11 апр 2010, 18:10
Спасибо: 5801 / 7
Сообщения: 56779
Человек дождя / Rain Man



Перевод: Авторский, Михалев, cубтитры: отсутствуют
Формат: HDRip-AVC, MKV, H.264, AC3
Страна: США
Режиссер: Барри Левинсон
Жанр: драма
Продолжительность: 02:13:50
Год выпуска: 1988

В ролях: Дастин Хоффман, Том Круз, Валерия Голино, Джералд Р. Молен, Джек Мёрдок, Майкл Д. Робертс, Ральф Сеймур, Люсинда Дженни, Бонни Хант, Ким Робиллард

Описание: У Чарли, грубоватого и эгоистичного молодого повесы, в наследство от отца остались лишь розовые кусты да «Бьюик» 49-го года. Внезапным «сюрпризом» для него стало открытие того, что львиная доля наследства оставлена отцом его больному аутизмом брату Раймонду.
Задавшись целью отобрать свою «справедливую долю» семейного достояния, Чарли похищает старшего брата и держит его заложником. Но то, что было задумано им из эгоизма, перерастает в волшебную одиссею дружбы и самоосмысления, которая разводит границы обособленного мирка Раймонда, а Чарли позволяет вырваться из оков своей некогда бесчувственной души.




Видео: 1072 x 576 (1.861), 23.976 fps, AVC, х264, High@L4.1, ~ 1778 Kbps Kbps, 0.120 bit/pixel
Аудио: 48 kHz, AC3 Dolby Digital, 3/2 (L,C,R,l,r) + LFE ch, ~448 kbps


Рип: jeenart

Toп250: #53






Хотел очень давно посмотреть этот фильм и вот буквально день назад наконец-то посмотрел, и был поражен.

Фильма о братьях, который поймут только те у кого есть брат, ведь это прекрасно, когда есть тот человек, который поможет тебе в трудную минуту.»- Один — плохо, два — хорошо. — Вдвоем всегда лучше.«Это фраза просто поразила меня, ведь это так и есть, когда брат рядом тебе хорошо, но только когда брата нет тебе плохо.
«В детстве, когда мне было страшно, приходил человек дождя и пел мне. Это был мой воображаемый друг. — И что с ним стало? — Ничего, я повзрослел.«Все мы понимаем что у каждого у нас был свой „Человек дождя“ это наш старший брат. Когда мы маленькие они о нас заботятся, но только стоит нам повзрослеть этот „Человек дождя“ пропадает и это правда мы становимся старше и он пропадает, а появляется потом и то каждый человек доходит до этого сам.

В конце хочется сказать, этот фильм должен посмотреть каждый у кого есть брат.

10 из 10

Jeane Air
General
Unique ID: 252979417277810450940132428559831783423 (0xBE521041DB5F3DE3BABF3BE57D53D7FF)
Complete name: F:\Мои релизы\Все релизы 8\3_top_kinopoisk_[tfile.ru]\celovek_dojdja_[tfile.ru].mkv
Format: Matroska
File size: 2.08 GiB
Duration: 2h 13mn
Overall bit rate: 2 227 Kbps
Encoded date: UTC 2011-06-08 21:00:48
Writing application: mkvmerge v4.6.0 ('Still Crazy After All These Years') сборка от Apr1 2011 21:01:49
Writing library: libebml v1.2.0 + libmatroska v1.1.0

Video
ID: 1
Format: AVC
Format/Info: Advanced Video Codec
Format profile: High@L4.1
Format settings, CABAC: Yes
Format settings, ReFrames: 3 frames
Codec ID: V_MPEG4/ISO/AVC
Duration: 2h 13mn
Bit rate: 1 778 Kbps
Width: 1 072 pixels
Height: 576 pixels
Display aspect ratio: 1.861
Frame rate: 23.976 fps
Color space: YUV
Chroma subsampling: 4:2:0
Bit depth: 8 bits
Scan type: Progressive
Bits/(Pixel*Frame): 0.120
Stream size: 1.62 GiB (78%)
Writing library: x264 core 115 r1937 aa21558
Encoding settings: cabac=1 / ref=3 / deblock=1:-1:-1 / analyse=0x3:0x113 / me=dia / subme=7 / psy=1 / psy_rd=1.00:0.10 / mixed_ref=1 / me_range=16 / chroma_me=1 / trellis=1 / 8x8dct=1 / cqm=0 / deadzone=21,11 / fast_pskip=1 / chroma_qp_offset=-3 / threads=6 / sliced_threads=0 / nr=0 / decimate=1 / interlaced=0 / bluray_compat=0 / constrained_intra=0 / bframes=1 / b_pyramid=0 / b_adapt=0 / b_bias=0 / direct=0 / weightb=1 / open_gop=0 / weightp=0 / keyint=250 / keyint_min=23 / scenecut=40 / intra_refresh=0 / rc_lookahead=40 / rc=2pass / mbtree=1 / bitrate=1778 / ratetol=1.0 / qcomp=0.60 / qpmin=0 / qpmax=69 / qpstep=4 / cplxblur=20.0 / qblur=0.5 / ip_ratio=1.40 / aq=1:1.00

Audio
ID: 2
Format: AC-3
Format/Info: Audio Coding 3
Mode extension: CM (complete main)
Codec ID: A_AC3
Duration: 2h 13mn
Bit rate mode: Constant
Bit rate: 448 Kbps
Channel(s): 6 channels
Channel positions: Front: L C R, Side: L R, LFE
Sampling rate: 48.0 KHz
Bit depth: 16 bits
Compression mode: Lossy
Stream size: 429 MiB (20%)
























Вечное сияние чистого разума / Eternal Sunshine of the Spotless Mind



Перевод: Профессиональный (полное дублирование), cубтитры: отсутствуют
Формат: HDRip-AVC, MKV, H.264, AC3
Страна: США
Режиссер: Мишель Гондри
Жанр: фантастика, драма, мелодрама
Продолжительность: 01:47:44
Год выпуска: 2004

В ролях: Джим Керри, Кейт Уинслет, Джерри Роберт Бирн, Элайджа Вуд, Томас Джей Райан, Марк Руффало, Джейн Адамс, Дэвид Кросс, Кирстен Данст, Том Уилкинсон

Описание: Наконец-то изобретена машина, которая позволяет избавиться от любых воспоминаний. Джоэль и Клементина решают выбросить друг друга из головы. Но в памяти Джоэля все еще живы самые нежные моменты их чувства. Чем меньше он помнит, тем больше любит.
Понимая, что он просто обожает Клементину, Джоэль пытается найти способ, чтобы вернуть любимой память о прошлом. Пока еще не очень поздно… Он должен победить ненавистный компьютерный мозг во что бы то ни стало!




Видео: 1024 x 576 (1.77, 23.976 fps, AVC, х264, High@L4.1, ~ 2244 Kbps Kbps, 0.159 bit/pixel
Аудио: 48 kHz, AC3 Dolby Digital, 3/2 (L,C,R,l,r) + LFE ch, ~384 kbps


Рип: jeenart

Toп250: #104






Этот фильм привлёк меня своей необычностью. Сюжет складывается, подобно мозаике, — из чувств и воспоминаний в потрясающей красоты узор, от которого нельзя оторвать взгляда.
Джим Керри легко и непринуждённо перевоплотился из вечного комика в серьёзного драматического актёра, которому действительно веришь.
Кейт Уинслет, как всегда, сыграла превосходно. Столько экспрессии и одновременно глубокой тоски было в её взгляде… Именно такой и должна быть взбалмошная Клементина.
Они настолько разные, но так подходят друг другу, словно части мозаики, различные по форме, но идеально складывающиеся в единую картинку.
Это кино вновь доказало давно известную истину: старая любовь не ржавеет. Человек, которого мы любили, покидая нас, уносит частичку нашего сердца с собой. И сколько бы мы ни старались, мы никогда не сможем совсем стереть его из своей памяти. Сердце не позволит забыть. Не помогут даже новейшие компьютерные технологии. Душа не подлежит дефрагментации.

Мы не имеем права забывать. Наши воспоминания бесценны, ведь из них складывается наша жизнь.

10 из 10

Злая Белоснежка
General
Unique ID: 188748177699139561019603422842222013613 (0x8DFF93A518D1FAD49DF1E3152C0BECAD)
Complete name: F:\Мои релизы\Все релизы 8\Новая папка\vecnoe_sijanie_cistogo_razuma_[tfile.ru].mkv
Format: Matroska
File size: 1.98 GiB
Duration: 1h 47mn
Overall bit rate: 2 630 Kbps
Encoded date: UTC 2011-06-05 10:45:33
Writing application: mkvmerge v4.6.0 ('Still Crazy After All These Years') сборка от Apr1 2011 21:01:49
Writing library: libebml v1.2.0 + libmatroska v1.1.0

Video
ID: 1
Format: AVC
Format/Info: Advanced Video Codec
Format profile: High@L4.1
Format settings, CABAC: Yes
Format settings, ReFrames: 3 frames
Codec ID: V_MPEG4/ISO/AVC
Duration: 1h 47mn
Bit rate: 2 244 Kbps
Width: 1 024 pixels
Height: 576 pixels
Display aspect ratio: 16:9
Frame rate: 23.976 fps
Color space: YUV
Chroma subsampling: 4:2:0
Bit depth: 8 bits
Scan type: Progressive
Bits/(Pixel*Frame): 0.159
Stream size: 1.65 GiB (83%)
Writing library: x264 core 115 r1937 aa21558
Encoding settings: cabac=1 / ref=3 / deblock=1:-1:-1 / analyse=0x3:0x113 / me=dia / subme=7 / psy=1 / psy_rd=1.00:0.10 / mixed_ref=1 / me_range=16 / chroma_me=1 / trellis=1 / 8x8dct=1 / cqm=0 / deadzone=21,11 / fast_pskip=1 / chroma_qp_offset=-3 / threads=6 / sliced_threads=0 / nr=0 / decimate=1 / interlaced=0 / bluray_compat=0 / constrained_intra=0 / bframes=1 / b_pyramid=0 / b_adapt=0 / b_bias=0 / direct=0 / weightb=1 / open_gop=0 / weightp=0 / keyint=250 / keyint_min=23 / scenecut=40 / intra_refresh=0 / rc_lookahead=40 / rc=2pass / mbtree=1 / bitrate=2244 / ratetol=1.0 / qcomp=0.60 / qpmin=0 / qpmax=69 / qpstep=4 / cplxblur=20.0 / qblur=0.5 / ip_ratio=1.40 / aq=1:1.00

Audio
ID: 2
Format: AC-3
Format/Info: Audio Coding 3
Mode extension: CM (complete main)
Codec ID: A_AC3
Duration: 1h 47mn
Bit rate mode: Constant
Bit rate: 384 Kbps
Channel(s): 6 channels
Channel positions: Front: L C R, Side: L R, LFE
Sampling rate: 48.0 KHz
Bit depth: 16 bits
Compression mode: Lossy
Stream size: 296 MiB (15%)
























Знакомьтесь, Джо Блэк / Meet Joe Black



Перевод: Авторский, Ю. Живов, cубтитры: отсутствуют
Формат: HDRip-AVC, MKV, H.264, AC3
Страна: США
Режиссер: Мартин Брест
Жанр: фэнтези, драма, мелодрама, детектив
Продолжительность: 03:00:03
Год выпуска: 1998

В ролях: Брэд Питт, Энтони Хопкинс, Клер Форлани, Джэйк Вебер, Марсия Гэй Харден, Джеффри Тэмбор, Дэвид С. Ховард, Луис Келли-Миллер, Джанни Ст. Джон, Ричард Кларк, Мэрилуиз Бурк, Diane Kagan, June Squibb, Джин Кэнвилд, Сюзанн Хевнер, Madeline Balmaceda, Джули Ланд, Кэй Гаффни, Энтони Кэйн, Джо Х. Ламб, Роберт С. Ли

Описание: В жизни богатого и влиятельного газетного магната Уильяма Пэрриша появляется сама Смерть, принявшая обличие обворожительного молодого человека по имени Джо Блэк.
Смерть, уставшая от своих привычных обязанностей, предлагает Пэрришу необычное соглашение: магнат станет проводником Джо в мире живых, где тот планирует провести свой отпуск. По окончании каникул Смерть заберет Пэрриша с собой. С помощью Уильяма, загадочный и эксцентричный Джо начинает свое путешествие по бренной Земле.
Но происходит непредвиденное. Оказывается, что тело погибшего мужчины, которое Смерть выбрала для себя, принадлежало юноше, в которого была влюблена дочь Пэрриша.




Видео: 1168 x 632 (1.84, 23.976 fps, AVC, х264, High@L4.1, ~ 1271 Kbps Kbps, 0.072 bit/pixel
Аудио: 48 kHz, AC3 Dolby Digital, 3/2 (L,C,R,l,r) + LFE ch, ~384 kbps


Рип: jeenart

Toп250: #157

Потрясающая картина. В спокойной неторопливой манере режиссер рассказывает казалось бы банальную историю: вот Смерть, в образе молодого красивого мужчины, вот, девушка, которую Смерть хочет совратить…
Но нет, здесь все не так. Смерть — не роковой соблазнитель, а уставший человек, решивший отдохнуть, побывать в новом месте, узнать почувствовать, что значит жить. И он узнал это, в полной мере. Узнал, что значит жить, чувствовать… любить.
Это фильм о настоящей любви, об ответственности перед тем кого любишь, о самопожертвовании.
Бред Питт блестяще справился со своей ролью, ролью Смерти, познающей мир, с ролью влюбленного. А единственная любовная сцена, пожалуй, самый удачное место в фильме.
А сцена прощания заставляет сжиматься сердце…

Все три часа фильма пролетают как один миг, миг, наполненный удовольствием…

10 из 10

Ladynelly
General
Unique ID: 236815072982231615932720584103265980056 (0xB228EC8D7BE04D68B32AD95A03664E9
Complete name: F:\Мои релизы\Все релизы 8\Новая папка\znakomtesj_dzho_blek_[tfile.ru].mkv
Format: Matroska
File size: 2.09 GiB
Duration: 3h 0mn
Overall bit rate: 1 657 Kbps
Encoded date: UTC 2011-06-08 15:43:58
Writing application: mkvmerge v4.6.0 ('Still Crazy After All These Years') сборка от Apr1 2011 21:01:49
Writing library: libebml v1.2.0 + libmatroska v1.1.0

Video
ID: 1
Format: AVC
Format/Info: Advanced Video Codec
Format profile: High@L4.1
Format settings, CABAC: Yes
Format settings, ReFrames: 3 frames
Codec ID: V_MPEG4/ISO/AVC
Duration: 3h 0mn
Bit rate: 1 271 Kbps
Width: 1 168 pixels
Height: 632 pixels
Display aspect ratio: 16:9
Frame rate: 23.976 fps
Color space: YUV
Chroma subsampling: 4:2:0
Bit depth: 8 bits
Scan type: Progressive
Bits/(Pixel*Frame): 0.072
Stream size: 1.56 GiB (75%)
Writing library: x264 core 115 r1937 aa21558
Encoding settings: cabac=1 / ref=3 / deblock=1:-1:-1 / analyse=0x3:0x113 / me=dia / subme=7 / psy=1 / psy_rd=1.00:0.10 / mixed_ref=1 / me_range=16 / chroma_me=1 / trellis=1 / 8x8dct=1 / cqm=0 / deadzone=21,11 / fast_pskip=1 / chroma_qp_offset=-3 / threads=6 / sliced_threads=0 / nr=0 / decimate=1 / interlaced=0 / bluray_compat=0 / constrained_intra=0 / bframes=1 / b_pyramid=0 / b_adapt=0 / b_bias=0 / direct=0 / weightb=1 / open_gop=0 / weightp=0 / keyint=250 / keyint_min=23 / scenecut=40 / intra_refresh=0 / rc_lookahead=40 / rc=2pass / mbtree=1 / bitrate=1271 / ratetol=1.0 / qcomp=0.60 / qpmin=0 / qpmax=69 / qpstep=4 / cplxblur=20.0 / qblur=0.5 / ip_ratio=1.40 / aq=1:1.00

Audio
ID: 2
Format: AC-3
Format/Info: Audio Coding 3
Mode extension: CM (complete main)
Codec ID: A_AC3
Duration: 3h 0mn
Bit rate mode: Constant
Bit rate: 384 Kbps
Channel(s): 6 channels
Channel positions: Front: L C R, Side: L R, LFE
Sampling rate: 48.0 KHz
Bit depth: 16 bits
Compression mode: Lossy
Stream size: 496 MiB (23%)






















Поделиться:




реклама партнёра


Вернуться к началу
 Профиль Отправить личное сообщение  
 
   Похожие торренты   Автор   Торрент   Размер 
В этой теме нет новых непрочитанных сообщений. Унижение / The Humbling (Барри Левинсон) [Драма, Комедия, 2014] HDRip, dvo

Dracon

6 | 4

1.37 ГБ

В этой теме нет новых непрочитанных сообщений. Унижение / The Humbling (Барри Левинсон) [Драма, Комедия, 2014] HDRip, Mvo [Лицензия]

Dracon

349 | 11

1.37 ГБ

В этой теме нет новых непрочитанных сообщений. Унижение / The Humbling (Барри Левинсон) [Драма, Комедия, 2014] WEB-DLRip, dvo

Dracon

7 | 3

1.45 ГБ

В этой теме нет новых непрочитанных сообщений. Унижение / The Humbling (Барри Левинсон) [Драма, Комедия, 2014] WEB-DL 720p, dvo

Dracon

7 | 3

3.46 ГБ

В этой теме нет новых непрочитанных сообщений. Унижение / The Humbling (Барри Левинсон) [Драма, Комедия, 2014] DVD5, Mvo [Лицензия]

Dracon

31 | 13

4.37 ГБ

В этой теме нет новых непрочитанных сообщений. Унижение / The Humbling (Барри Левинсон) [Драма, Комедия, 2014] BDRip 720p, dvo

Dracon

4 | 4

4.51 ГБ

В этой теме нет новых непрочитанных сообщений. Унижение / The Humbling (Барри Левинсон) [Драма, Комедия, 2014] BDRip 1080p, Mvo [Лицензия]

Dracon

68 | 18

12.97 ГБ


Начать новую тему Ответить на тему  [ 1 сообщение ] 




Для Мосгорсуда, Роскомнадзора и рекламодателей:: mosgorsud-torrent[собачка]yandex.ru