Торрент файл
скачать торрент магнет ссылка Добавлен: 10 янв 2012, 19:05
Размер: 6.25 ГБ
Сидеров: 42
Личеров: 32
Автор

СообщениеДобавлено: 10 янв 2012, 19:05 

Не в сети
Супермодератор
Аватара пользователя
Дата регистрации:
11 апр 2010, 18:10
Спасибо: 5798 / 7
Сообщения: 56779
Пятый элемент / The Fifth Element



Перевод: Профессиональный (полное дублирование), cубтитры: отсутствуют
Формат: HDRip-AVC, MKV, H.264, AC3
Страна: Франция
Режиссер: Люк Бессон
Жанр: фантастика, боевик, триллер, комедия
Продолжительность: 02:06:30
Год выпуска: 1997

В ролях: Брюс Уиллис, Гари Олдман, Иэн Холм, Милла Йовович, Крис Такер, Люк Перри, Брайон Джеймс, Том "Тайни" Листер мл., Ли Эванс, Чарли Крид-Майлз

Описание: Каждые пять тысяч лет открываются двери между измерениями и темные силы стремятся нарушить существующую гармонию. Каждые пять тысяч лет Вселенной нужен герой, способный противостоять этому злу. XXIII век. Нью-йоркский таксист Корбен Даллас должен решить глобальную задачу — спасение всего рода человеческого.
Зло в виде раскаленной массы, наделенной интеллектом, надвигается на Землю. Победить его можно, только лишь собрав воедино четыре элемента (они же стихии — земля, вода, воздух и огонь) и добавив к ним загадочный пятый элемент.




Видео: 1072 x 456 (2.35:1), 23.976 fps, AVC, х264, High@L4.1, ~ 1898 Kbps Kbps, 0.162 bit/pixel
Аудио: 48 kHz, AC3 Dolby Digital, 3/2 (L,C,R,l,r) + LFE ch, ~448 kbps


Рип: jeenart

Toп250: #100






Необыкновенно позитивный, лучший фильм Люка Бессонна. Его можно пересматривать много раз для поднятия настроения, находя много смешных, незаметных на первый взгляд моментов.
Красивая идея фильма «любовь спасет мир», безупречно показана юной Йовович и скептиком Уиллисом. В фильме масса обаятельных ярких персонажей, как Руби Рода, священника, злодея Зорга, на которых интересно смотреть, а их фразы стали крылатыми.
Мир будущего Бессонна, интересен огромным количеством технических новинок, мода будущего — свобода самовыражения персонажей, а сами жители — разношерстные существа, разного уровня развития.

Фильм продуман до мельчайших деталей. Идеальный фильм для улучшения настроения, единственный в своем роде. Обязателен к просмотру!

10 из 10

lora
General
Unique ID: 195054584841688826018139831815678297708 (0x92BE2585DA00AB748E5673C29315866C)
Complete name: F:\Мои релизы\Все релизы 9\top_kinopoisk_3_[tfile.ru]\the_fifth_element_[tfile.ru].mkv
Format: Matroska
File size: 2.07 GiB
Duration: 2h 6mn
Overall bit rate: 2 347 Kbps
Encoded date: UTC 2011-06-12 20:19:36
Writing application: mkvmerge v4.6.0 ('Still Crazy After All These Years') сборка от Apr1 2011 21:01:49
Writing library: libebml v1.2.0 + libmatroska v1.1.0

Video
ID: 1
Format: AVC
Format/Info: Advanced Video Codec
Format profile: High@L4.1
Format settings, CABAC: Yes
Format settings, ReFrames: 3 frames
Codec ID: V_MPEG4/ISO/AVC
Duration: 2h 6mn
Bit rate: 1 898 Kbps
Width: 1 072 pixels
Height: 456 pixels
Display aspect ratio: 2.35:1
Frame rate: 23.976 fps
Color space: YUV
Chroma subsampling: 4:2:0
Bit depth: 8 bits
Scan type: Progressive
Bits/(Pixel*Frame): 0.162
Stream size: 1.64 GiB (79%)
Writing library: x264 core 115 r1937 aa21558
Encoding settings: cabac=1 / ref=3 / deblock=1:-1:-1 / analyse=0x3:0x113 / me=dia / subme=7 / psy=1 / psy_rd=1.00:0.10 / mixed_ref=1 / me_range=16 / chroma_me=1 / trellis=1 / 8x8dct=1 / cqm=0 / deadzone=21,11 / fast_pskip=1 / chroma_qp_offset=-3 / threads=6 / sliced_threads=0 / nr=0 / decimate=1 / interlaced=0 / bluray_compat=0 / constrained_intra=0 / bframes=1 / b_pyramid=0 / b_adapt=0 / b_bias=0 / direct=0 / weightb=1 / open_gop=0 / weightp=0 / keyint=250 / keyint_min=23 / scenecut=40 / intra_refresh=0 / rc_lookahead=40 / rc=2pass / mbtree=1 / bitrate=1898 / ratetol=1.0 / qcomp=0.60 / qpmin=0 / qpmax=69 / qpstep=4 / cplxblur=20.0 / qblur=0.5 / ip_ratio=1.40 / aq=1:1.00

Audio
ID: 2
Format: AC-3
Format/Info: Audio Coding 3
Mode extension: CM (complete main)
Codec ID: A_AC3
Duration: 2h 6mn
Bit rate mode: Constant
Bit rate: 448 Kbps
Channel(s): 6 channels
Channel positions: Front: L C R, Side: L R, LFE
Sampling rate: 48.0 KHz
Bit depth: 16 bits
Compression mode: Lossy
Stream size: 405 MiB (19%)






















Мальчик в полосатой пижаме / The Boy in the Striped Pyjamas



Перевод: Профессиональный (полное дублирование), cубтитры: отсутствуют
Формат: HDTVRip-AVC, MKV, H.264, AC3
Страна: США, Великобритания
Режиссер: Марк Херман
Жанр: триллер, драма, военный
Продолжительность: 01:30:02
Год выпуска: 2008

В ролях: Аса Баттерфилд, Вера Фармига, Дэвид Тьюлис, Джек Скэнлон, Шила Хэнкок, Ричард Джонсон, Руперт Френд, Эмбер Битти, Лазло Арон, Домонкос Немит

Описание: История, происходящая во время Второй мировой войны и показанная сквозь глаза невинного и ничего не подозревающего о происходящих событиях Бруно, восьмилетнего сына коменданта концентрационного лагеря. Его случайное знакомство и дружба с еврейским мальчиком по другую сторону ограды лагеря, в конечном счете, приводит к самым непредсказуемым и ошеломительным последствиям.



Видео: 1024 x 576 (1.78:1), 25.000 fps, AVC, х264, High@L4.1, ~ 2944 Kbps Kbps, 0.200 bit/pixel
Аудио: 48 kHz, AC3 Dolby Digital, 3/2 (L,C,R,l,r) + LFE ch, ~448 kbps


Рип: jeenart

Toп250: #111
Начиная просмотр фильма, ждешь чего-то легкого, чего-то завораживающего своей незатейливой обыденностью. Однако, позже понимаешь, что даже время, в котором происходят события (годы второй мировой) говорит о серьезном сюжете, о переживаниях, которые ждут тебя на протяжении фильма.
Маленький мальчик из немецкой семьи, где папа военный, переезжает в новый дом, где нет ни его старых друзей, ни школы, ни знакомых улиц. По существу, там нет практически всего, что было так привычно. Есть лишь странный лагерь, который мальчик видит из окна своей новой спальни и называет его «фермой» со странными «фермерами в полосатой пижаме». История о дружбе немецкого и еврейского мальчика цепляет свой невинностью. А угнетающая обстановка того времени и события, происходящие на так называемой «ферме», не дают почувствовать ту легкость, которую ты так ждал в первые минуты фильма.
Завораживающая история, снятая по роману, окунает с головой в атмосферу этого периода и не оставит равнодушным никого. Название этому фильму «Мальчик в полосатой пижаме» и посмотреть его стоит каждому.

10 из 10

Black_Caty
General
Unique ID: 240088934057941202863682251082278436246 (0xB49F725DAC0345C9B7AF1F9F8830FD96)
Complete name: F:\Мои релизы\Все релизы 9\top_kinopoisk_3_[tfile.ru]\malchik_w_polosatoj_pizhame_[tfile.ru].mkv
Format: Matroska
File size: 2.09 GiB
Duration: 1h 30mn
Overall bit rate: 3 328 Kbps
Encoded date: UTC 2011-06-12 09:54:50
Writing application: mkvmerge v4.6.0 ('Still Crazy After All These Years') сборка от Apr1 2011 21:01:49
Writing library: libebml v1.2.0 + libmatroska v1.1.0

Video
ID: 1
Format: AVC
Format/Info: Advanced Video Codec
Format profile: High@L4.1
Format settings, CABAC: Yes
Format settings, ReFrames: 3 frames
Codec ID: V_MPEG4/ISO/AVC
Duration: 1h 30mn
Bit rate: 2 944 Kbps
Width: 1 024 pixels
Height: 576 pixels
Display aspect ratio: 16:9
Frame rate: 25.000 fps
Color space: YUV
Chroma subsampling: 4:2:0
Bit depth: 8 bits
Scan type: Progressive
Bits/(Pixel*Frame): 0.200
Stream size: 1.81 GiB (86%)
Writing library: x264 core 115 r1937 aa21558
Encoding settings: cabac=1 / ref=3 / deblock=1:-1:-1 / analyse=0x3:0x113 / me=dia / subme=7 / psy=1 / psy_rd=1.00:0.10 / mixed_ref=1 / me_range=16 / chroma_me=1 / trellis=1 / 8x8dct=1 / cqm=0 / deadzone=21,11 / fast_pskip=1 / chroma_qp_offset=-3 / threads=6 / sliced_threads=0 / nr=0 / decimate=1 / interlaced=0 / bluray_compat=0 / constrained_intra=0 / bframes=1 / b_pyramid=0 / b_adapt=0 / b_bias=0 / direct=0 / weightb=1 / open_gop=0 / weightp=0 / keyint=250 / keyint_min=25 / scenecut=40 / intra_refresh=0 / rc_lookahead=40 / rc=2pass / mbtree=1 / bitrate=2944 / ratetol=1.0 / qcomp=0.60 / qpmin=0 / qpmax=69 / qpstep=4 / cplxblur=20.0 / qblur=0.5 / ip_ratio=1.40 / aq=1:1.00

Audio
ID: 2
Format: AC-3
Format/Info: Audio Coding 3
Mode extension: CM (complete main)
Codec ID: A_AC3
Duration: 1h 30mn
Bit rate mode: Constant
Bit rate: 384 Kbps
Channel(s): 6 channels
Channel positions: Front: L C R, Side: L R, LFE
Sampling rate: 48.0 KHz
Bit depth: 16 bits
Compression mode: Lossy
Stream size: 247 MiB (12%)
























Заплати другому / Pay It Forward



Перевод: Профессиональный (полное дублирование), cубтитры: отсутствуют
Формат: HDTVRip-AVC, MKV, H.264, AC3
Страна: США
Режиссер: Мими Ледер
Жанр: драма, мелодрама
Продолжительность: 02:03:28
Год выпуска: 2000

В ролях: Кевин Спейси, Хелен Хант, Хэйли Джоэл Осмент, Джей Мор, Джеймс Кэвизел, Джон Бон Джови, Энджи Дикинсон, Дэвид Рэмси, Гари Вернтц

Описание: Представьте себе. Вы оказываете кому-либо существенную услугу и просите этого человека отблагодарить не вас, а трех других людей, которые, в свою очередь, отблагодарят еще троих, и так далее, в мировом масштабе, распространяя доброту и тепло. Насколько действенной может оказаться подобная сердечная идея? Ученик седьмого класса Тревор МакКинни решил это проверить, начав цепочку добра..



Видео: 1024 x 576 (1.78:1), 25.000 fps, AVC, х264, High@L4.1, ~ 2025 Kbps Kbps, 0.143 bit/pixel
Аудио: 48 kHz, AC3 Dolby Digital, 3/2 (L,C,R,l,r) + LFE ch, ~384 kbps


Рип: jeenart

Toп250: #114
Замечательный фильм.
Добрый, заставляющий думать, улыбаться и плакать.
Хэйли Джоэл Осмент в роли Тревора сделал этот фильм очень искренним. Потому что именно ребенок, видит мир не таким уж плохим, считает что его можно сделать лучше, приложив всего лишь чуточку усилий.
Кевин Спейси в роли учителя показывает, что иногда все же стоит поступиться своим принципам ради того, чтобы изменить свою жизнь, да и мир в целом тоже.
Мне кажется это тот самый фильм, который нужно посмотреть каждому человеку в наше время. Ведь мы живем в мире, который пропитан цинизмом и эгоизмом, и в нем очень мало хороших людей, готовых прийти на помощь. Наверно, эта «формула счастья» вряд ли сработала бы в реалии. Но этот фильм приводит к мысли, что хотя бы стоит попробовать сделать мир добрее

10 из 10

Pandenok
General
Unique ID: 191264470925122193676896622499386233692 (0x8FE4327ABAD153F69B4B469F023A135C)
Complete name: F:\Мои релизы\Все релизы 9\top_kinopoisk_3_[tfile.ru]\pay_it_forward_[tfile.ru].mkv
Format: Matroska
File size: 2.08 GiB
Duration: 2h 3mn
Overall bit rate: 2 410 Kbps
Encoded date: UTC 2011-06-08 10:14:24
Writing application: mkvmerge v4.6.0 ('Still Crazy After All These Years') сборка от Apr1 2011 21:01:49
Writing library: libebml v1.2.0 + libmatroska v1.1.0

Video
ID: 1
Format: AVC
Format/Info: Advanced Video Codec
Format profile: High@L4.1
Format settings, CABAC: Yes
Format settings, ReFrames: 3 frames
Codec ID: V_MPEG4/ISO/AVC
Duration: 2h 3mn
Bit rate: 2 025 Kbps
Width: 1 024 pixels
Height: 576 pixels
Display aspect ratio: 16:9
Frame rate: 23.976 fps
Color space: YUV
Chroma subsampling: 4:2:0
Bit depth: 8 bits
Scan type: Progressive
Bits/(Pixel*Frame): 0.143
Stream size: 1.71 GiB (82%)
Writing library: x264 core 115 r1937 aa21558
Encoding settings: cabac=1 / ref=3 / deblock=1:-1:-1 / analyse=0x3:0x113 / me=dia / subme=7 / psy=1 / psy_rd=1.00:0.10 / mixed_ref=1 / me_range=16 / chroma_me=1 / trellis=1 / 8x8dct=1 / cqm=0 / deadzone=21,11 / fast_pskip=1 / chroma_qp_offset=-3 / threads=6 / sliced_threads=0 / nr=0 / decimate=1 / interlaced=0 / bluray_compat=0 / constrained_intra=0 / bframes=1 / b_pyramid=0 / b_adapt=0 / b_bias=0 / direct=0 / weightb=1 / open_gop=0 / weightp=0 / keyint=250 / keyint_min=23 / scenecut=40 / intra_refresh=0 / rc_lookahead=40 / rc=2pass / mbtree=1 / bitrate=2025 / ratetol=1.0 / qcomp=0.60 / qpmin=0 / qpmax=69 / qpstep=4 / cplxblur=20.0 / qblur=0.5 / ip_ratio=1.40 / aq=1:1.00

Audio
ID: 2
Format: AC-3
Format/Info: Audio Coding 3
Mode extension: CM (complete main)
Codec ID: A_AC3
Duration: 2h 3mn
Bit rate mode: Constant
Bit rate: 384 Kbps
Channel(s): 6 channels
Channel positions: Front: L C R, Side: L R, LFE
Sampling rate: 48.0 KHz
Bit depth: 16 bits
Compression mode: Lossy
Stream size: 339 MiB (16%)






















Поделиться:




реклама партнёра


Вернуться к началу
 Профиль Отправить личное сообщение  
 
   Похожие торренты   Автор   Торрент   Размер 
В этой теме нет новых непрочитанных сообщений. Люси / Lucy (Люк Бессон) [2014, Люк Бессон, WEBRip 720p | Чистый звук] Dub

Nickolas3435

8880 | 67

1.68 ГБ

В этой теме нет новых непрочитанных сообщений. Ланиста Ботиата. Анализ фильма "Спартак", Стэнли Кубрика [Анализ ключевых эпизодов фильма, 2012] WEBRip

vairgin

1 | 4

2.82 ГБ

В этой теме нет новых непрочитанных сообщений. Визионеры / Visioneers [фантастика, драма, комедия, 2008] HDRip, Mvo

salma3

35 | 2

1.41 ГБ

В этой теме нет новых непрочитанных сообщений. Методика допроса женщин. Анализ фильма "Основной инстинкт" [Психологический анализ фильма, 2012] WEBRip

vairgin

3 | 6

434.42 МБ

В этой теме нет новых непрочитанных сообщений. Как девушке выиграть свой первый бой (Жанна Д’Арк / Joan of Arc, Люк Бессон, 1999) Меняйлов [2013, Фильм о фильме, HDRip]

vairgin

0 | 3

439.73 МБ

В этой теме нет новых непрочитанных сообщений. Полицейский 2000 года / TC 2000 [Фантастика, боевик, 1993] BDRip 720p, Dvo+2Avo

salma3

17 | 4

4.81 ГБ

В этой теме нет новых непрочитанных сообщений. Черри 2000 / Cherry 2000 [фантастика, боевик, приключения, 1987] BDRip 720p, Mvo+2Dvo+Avo+Sub

salma3

62 | 8

4.22 ГБ


Начать новую тему Ответить на тему  [ 1 сообщение ] 




Для Мосгорсуда, Роскомнадзора и рекламодателей:: mosgorsud-torrent[собачка]yandex.ru