Торрент файл
скачать торрент магнет ссылка Добавлен: 10 янв 2012, 19:04
Размер: 6.35 ГБ
Сидеров: 25
Личеров: 15
Автор

СообщениеДобавлено: 10 янв 2012, 19:04 

Не в сети
Супермодератор
Аватара пользователя
Дата регистрации:
11 апр 2010, 18:10
Спасибо: 5801 / 7
Сообщения: 56779
Криминальное чтиво / Pulp Fiction



Перевод: Авторский (Гаврилов Андрей), cубтитры: отсутствуют
Формат: HDRip-AVC, MKV, H.264, AC3
Страна: США
Режиссер: Квентин Тарантино
Жанр: драма, криминал
Продолжительность: 02:34:20
Год выпуска: 1994

В ролях: Джон Траволта, Сэмюэл Л. Джексон, Ума Турман, Брюс Уиллис, Харви Кейтель, Тим Рот, Мария Де Медейрос, Дуэйн Уайтейкер, Розанна Аркетт, Лоуренс Бендер, Стив Бушеми, Бронах Галлахер, Сьюзан Гриффитс, Анджела Джоунс, Пол Калдерон, Эрик Кларк, Фил ЛаМарр, Брэд Паркер, Джозеф Пилато, Аманда Пламмер, Винг Рэймс, Берр Стирс, Кристофер Уокен, Фрэнк Уэйли, Стефен Хибберт, Джулия Суини, Джером Патрик Хобэн, Эрик Штольц, Лора Лавлэйс, Майкл Гилден, Лорелей Лесли, Эмил Ситка, Венесса Валентино, Бренда Хиллхауз, Сью Шер, Линда Кэй, Роберт Рут, Рич Тернер

Описание: Двое бандитов Винсент Вега и Джулс Винфилд проводят время в философских беседах в перерыве между разборками и «решением проблем» с должниками своего криминального босса Марселласа Уоллеса. Параллельно разворачивается три истории.
В первой из них Винсент присматривает за женой Марселласа Мией и спасает ее от передозировки наркотиков. Во второй рассказывается о Бутче Кулидже, боксере, нанятом Уоллесом, чтобы сдать бой, но обманувшим его. Третья история объединяет первые две — в кафе парочка молодых неудачливых грабителей — Пампкин и Хани Бани делают попытку ограбления, но Джулс останавливает их.




Видео: 1072 x 456 (1.35:1), 23.976 fps, AVC, х264, High@L4.1, ~ 1582 Kbps, 0.135 bit/pixel
Аудио: 48 kHz, AC3 Dolby Digital, 3/2 (L,C,R,l,r) + LFE ch, ~384 kbps


Рип: jeenart

Toп250: #12







В моем списке фильмов «Криминальное чтиво» стоит во главе, и это мой самый любимый фильм и никакой другой, не достоин, чтобы возглавить список.
Сценарий придуман просто великолепно, диалоги и реплика актёров просто поражает, особенно реплика Самюеля Л. Джексона.
Весь сюжет придуман так тщательно, что начало фильма это его конец. Надо же так разбить фильм, на нестандартную хронологию и тем самым попасть в точку.
Режиссёр Квентин Тарантино собрал отличную команду, и они все вместе сняли
«шедевр». У Тарантино свой принцип снимать фильм в таком стиле, за это я уважаю его и его работы.
Актёры подобраны просто идеально, Джон Траволта, Самюэль Л. Джексон и неподражаемая Ума Турман, они сделали прекрасную работу. Нельзя забывать о Винге Рэймсе, Брюсе Уиллисе и о Тиме Роте, и они тоже сделали отличную работу.
Саундтрек фильма сногсшибательный.
Что ещё хорошего сказать об этом фильме, «шедевр» ведь не зря он получил золотую пальмовую ветвь в канне.

И без этого ясно

10 из 10

ZIABA
General
Unique ID: 251007250620867023523989747003418818951 (0xBCD63CEF11AC1EE49DE58C7878F53987)
Complete name: F:\Мои релизы\Все релизы 9\kinopoisk_top_[tfile.ru]\kriminalnoe_ctivo_[tfile.ru].mkv
Format: Matroska
File size: 2.12 GiB
Duration: 2h 34mn
Overall bit rate: 1 961 Kbps
Encoded date: UTC 2011-06-17 17:48:22
Writing application: mkvmerge v4.6.0 ('Still Crazy After All These Years') сборка от Apr1 2011 21:01:49
Writing library: libebml v1.2.0 + libmatroska v1.1.0

Video
ID: 1
Format: AVC
Format/Info: Advanced Video Codec
Format profile: High@L4.1
Format settings, CABAC: Yes
Format settings, ReFrames: 3 frames
Codec ID: V_MPEG4/ISO/AVC
Duration: 2h 34mn
Bit rate: 1 582 Kbps
Width: 1 072 pixels
Height: 456 pixels
Display aspect ratio: 2.35:1
Frame rate: 23.976 fps
Color space: YUV
Chroma subsampling: 4:2:0
Bit depth: 8 bits
Scan type: Progressive
Bits/(Pixel*Frame): 0.135
Stream size: 1.66 GiB (78%)
Writing library: x264 core 115 r1937 aa21558
Encoding settings: cabac=1 / ref=3 / deblock=1:-1:-1 / analyse=0x3:0x113 / me=dia / subme=7 / psy=1 / psy_rd=1.00:0.10 / mixed_ref=1 / me_range=16 / chroma_me=1 / trellis=1 / 8x8dct=1 / cqm=0 / deadzone=21,11 / fast_pskip=1 / chroma_qp_offset=-3 / threads=6 / sliced_threads=0 / nr=0 / decimate=1 / interlaced=0 / bluray_compat=0 / constrained_intra=0 / bframes=1 / b_pyramid=0 / b_adapt=0 / b_bias=0 / direct=0 / weightb=1 / open_gop=0 / weightp=0 / keyint=250 / keyint_min=23 / scenecut=40 / intra_refresh=0 / rc_lookahead=40 / rc=2pass / mbtree=1 / bitrate=1582 / ratetol=1.0 / qcomp=0.60 / qpmin=0 / qpmax=69 / qpstep=4 / cplxblur=20.0 / qblur=0.5 / ip_ratio=1.40 / aq=1:1.00

Audio
ID: 2
Format: AC-3
Format/Info: Audio Coding 3
Mode extension: CM (complete main)
Codec ID: A_AC3
Duration: 2h 34mn
Bit rate mode: Constant
Bit rate: 384 Kbps
Channel(s): 6 channels
Channel positions: Front: L C R, Side: L R, LFE
Sampling rate: 48.0 KHz
Bit depth: 16 bits
Compression mode: Lossy
Stream size: 426 MiB (20%)






















Игры разума / A Beautiful Mind



Перевод: Профессиональный (полное дублирование), cубтитры: отсутствуют
Формат: HDRip-AVC, MKV, H.264, AC3
Страна: США
Режиссер: Рон Ховард
Жанр: драма, биография
Продолжительность: 02:15:19
Год выпуска: 2001

В ролях: Рассел Кроу, Эд Харрис, Дженнифер Коннелли, Кристофер Пламмер, Пол Беттани, Адам Голдберг, Джош Лукас, Энтони Рэпп, Джейсон Грей-Стенфорд, Джудд Хирш

Описание: От всемирной известности до греховных глубин — все это познал на своей шкуре Джон Форбс Нэш-младший. Математический гений, он на заре своей карьеры сделал титаническую работу в области теории игр, которая практически перевернула этот раздел математики и практически принесла ему международную известность.
Однако буквально в то же время заносчивый и пользующийся успехом у женщин Нэш получает удар, который переворачивает уже его собственную жизнь — врачи ставят ему диагноз «параноидная шизофрения».




Видео: 1168 x 632 (1.85:1), 23.976 fps, AVC, х264, High@L4.1, ~ 1855 Kbps Kbps, 0.105 bit/pixel
Аудио: 48 kHz, AC3 Dolby Digital, 3/2 (L,C,R,l,r) + LFE ch, ~384 kbps


Рип: jeenart

Toп250: #14





Фильм потрясает глубиной переживаний главного героя, Кроу, просто выше всяких похвал. Полагаю, именно этот фильм должен был принести ему Оскар, а не Гладиатор, который при всей своей эпичности остается все-таки классно сделанным историческим боевичком, но Игры Разума, совсем другое кино.
Один только момент, когда главный герой в баре видит блондинку и его ум начинает работать совсем не в ту сторону, как у его вроде бы не глупых друзей, чего стоит.
Кстати, обратили ли вы внимание, что в роли «необычных» людей с отклонениями, актеры открываются по-настоящему, получая заслуженные награды, взять хотя бы Хэнкса-Гампа, Пачино-полковника Слэйда, про Дастина Хоффмана и его Человека Дождя и говорить нечего.

10 из 10

BeeMonkey
General
Unique ID: 224532702208744454432099190581949167669 (0xA8EB6CEB752FC9AD834B6C9E3AA4F835)
Complete name: F:\Мои релизы\Все релизы 9\Новая папка (2)\igry_razuma_[tfile.ru].mkv
Format: Matroska
File size: 2.12 GiB
Duration: 2h 15mn
Overall bit rate: 2 240 Kbps
Encoded date: UTC 2011-06-17 13:52:31
Writing application: mkvmerge v4.6.0 ('Still Crazy After All These Years') сборка от Apr1 2011 21:01:49
Writing library: libebml v1.2.0 + libmatroska v1.1.0

Video
ID: 1
Format: AVC
Format/Info: Advanced Video Codec
Format profile: High@L4.1
Format settings, CABAC: Yes
Format settings, ReFrames: 3 frames
Codec ID: V_MPEG4/ISO/AVC
Duration: 2h 15mn
Bit rate: 1 855 Kbps
Width: 1 168 pixels
Height: 632 pixels
Display aspect ratio: 16:9
Frame rate: 23.976 fps
Color space: YUV
Chroma subsampling: 4:2:0
Bit depth: 8 bits
Scan type: Progressive
Bits/(Pixel*Frame): 0.105
Stream size: 1.71 GiB (81%)
Writing library: x264 core 115 r1937 aa21558
Encoding settings: cabac=1 / ref=3 / deblock=1:-1:-1 / analyse=0x3:0x113 / me=dia / subme=7 / psy=1 / psy_rd=1.00:0.10 / mixed_ref=1 / me_range=16 / chroma_me=1 / trellis=1 / 8x8dct=1 / cqm=0 / deadzone=21,11 / fast_pskip=1 / chroma_qp_offset=-3 / threads=6 / sliced_threads=0 / nr=0 / decimate=1 / interlaced=0 / bluray_compat=0 / constrained_intra=0 / bframes=1 / b_pyramid=0 / b_adapt=0 / b_bias=0 / direct=0 / weightb=1 / open_gop=0 / weightp=0 / keyint=250 / keyint_min=23 / scenecut=40 / intra_refresh=0 / rc_lookahead=40 / rc=2pass / mbtree=1 / bitrate=1855 / ratetol=1.0 / qcomp=0.60 / qpmin=0 / qpmax=69 / qpstep=4 / cplxblur=20.0 / qblur=0.5 / ip_ratio=1.40 / aq=1:1.00

Audio
ID: 2
Format: AC-3
Format/Info: Audio Coding 3
Mode extension: CM (complete main)
Codec ID: A_AC3
Duration: 2h 15mn
Bit rate mode: Constant
Bit rate: 384 Kbps
Channel(s): 6 channels
Channel positions: Front: L C R, Side: L R, LFE
Sampling rate: 48.0 KHz
Bit depth: 16 bits
Compression mode: Lossy
Stream size: 372 MiB (17%)
























Шоу Трумана / The Truman Show



Перевод: Профессиональный (многоголосый, закадровый), cубтитры: отсутствуют
Формат: HDRip-AVC, MKV, H.264, AC3
Страна: США
Режиссер: Питер Уир
Жанр: драма
Продолжительность: 01:42:56
Год выпуска: 1998

В ролях: Джим Керри, Лора Линни, Ноа Эммерик, Наташа МакЭлхоун, Холланд Тейлор, Брайан Дилейт, Блэр Слэйтер, Питер Краузе, Хайди Шанц, Рон Тейлор...

Описание: Представьте себе, что вы вдруг начинаете понимать, что все вокруг вас — декорации, а люди — актеры, притворяющиеся теми, кем они вам кажутся. Весь ваш мир оказывается большим телесериалом, где вы исполняете главную роль, даже не подозревая об этом. Вся ваша жизнь — результат работы автора телешоу, которое вот уже тридцать лет смотрит вся планета, начиная с момента вашего рождения.
В такой ситуации оказался Труман, главный герой картины. Будет ли он продолжать жить в безопасном мире, где, как он теперь знает, у него практически нет свободы выбора, или все-таки выйдет из «игры» и станет сам хозяином своей судьбы, в которой его ждет не запланированная сценарием девушка?




Видео: 1024 x 576 (1.78:1), 23.976 fps, AVC, х264, High@L4.1, ~ 2488 Kbps, 0.176 bit/pixel
Аудио: 48 kHz, AC3 Dolby Digital, 3/2 (L,C,R,l,r) + LFE ch, ~448 kbps


Рип: jeenart

Toп250: #36






Превосходнейший фильм снял Питер Уир, очень мастерски поставленный с довольно оригинальным сценарием. Прям противоположность дурацким реалити-шоу, потому что это плохо — наблюдать за другими людьми. Героя фильма специально вырастили ради какого-то шоу, он живет обычной жизнью, простой обычный человек, только его знают по всему миру, а он об этом не догадывается.
И вот однажды приходит прозрение, и ты начинаешь бороться за свою свободу и счастье. Герою полностью сопереживаешь, когда он борется за свою жизнь на море, аж слезы наворачиваются, как это все потрясающе отснято, благодаря блестящей операторской работе. Будь все это бы реальностью, оставалось только посочувствовать человеку, живущему в таком мире.
Главную роль исполнил сам Джим Керри, причем исполнил он ее не будучи комиком, а как отличный драматический актер, сыграл он выше всяких похвал. Джим полностью влился в свой образ, воссоздав его очень реалистичным, поэтому кино не смотрится глупо и смешно. Порадовал Эд Харрис, его немного было, но последний финальный монолог, думаю, многим запомнился. Также любопытно было посмотреть на игру Наташу МакЭлхоун, жаль только немного.
Блестящий фильм, очень меня впечатлил, смотрел с превеликим удовольствием, все условия жанра соблюдены, может, даже и здесь недочеты, но явно они не влияют на оценку картины. Саундтрек вроде простенький, но многие композиции цепляют, все это отлично взаимосвязывается, в итоге получается атмосфера все более сильная и реалистичная. Очень сильное кино, есть над чем подумать, просто шедевр!

10 из 10

Lefty
General
Unique ID: 175868246421188414826141065324492624396 (0x844EFE0124A9733CB7921B6FAFEA120C)
Complete name: F:\Мои релизы\Все релизы 9\kinopoisk_top_[tfile.ru]\the_truman_show_[tfile.ru].mkv
Format: Matroska
File size: 2.11 GiB
Duration: 1h 42mn
Overall bit rate: 2 937 Kbps
Encoded date: UTC 2011-06-18 16:00:02
Writing application: mkvmerge v4.6.0 ('Still Crazy After All These Years') сборка от Apr1 2011 21:01:49
Writing library: libebml v1.2.0 + libmatroska v1.1.0

Video
ID: 1
Format: AVC
Format/Info: Advanced Video Codec
Format profile: High@L4.1
Format settings, CABAC: Yes
Format settings, ReFrames: 3 frames
Codec ID: V_MPEG4/ISO/AVC
Duration: 1h 42mn
Bit rate: 2 488 Kbps
Width: 1 024 pixels
Height: 576 pixels
Display aspect ratio: 16:9
Frame rate: 23.976 fps
Color space: YUV
Chroma subsampling: 4:2:0
Bit depth: 8 bits
Scan type: Progressive
Bits/(Pixel*Frame): 0.176
Stream size: 1.75 GiB (83%)
Writing library: x264 core 115 r1937 aa21558
Encoding settings: cabac=1 / ref=3 / deblock=1:-1:-1 / analyse=0x3:0x113 / me=dia / subme=7 / psy=1 / psy_rd=1.00:0.10 / mixed_ref=1 / me_range=16 / chroma_me=1 / trellis=1 / 8x8dct=1 / cqm=0 / deadzone=21,11 / fast_pskip=1 / chroma_qp_offset=-3 / threads=6 / sliced_threads=0 / nr=0 / decimate=1 / interlaced=0 / bluray_compat=0 / constrained_intra=0 / bframes=1 / b_pyramid=0 / b_adapt=0 / b_bias=0 / direct=0 / weightb=1 / open_gop=0 / weightp=0 / keyint=250 / keyint_min=23 / scenecut=40 / intra_refresh=0 / rc_lookahead=40 / rc=2pass / mbtree=1 / bitrate=2488 / ratetol=1.0 / qcomp=0.60 / qpmin=0 / qpmax=69 / qpstep=4 / cplxblur=20.0 / qblur=0.5 / ip_ratio=1.40 / aq=1:1.00

Audio
ID: 2
Format: AC-3
Format/Info: Audio Coding 3
Mode extension: CM (complete main)
Codec ID: A_AC3
Duration: 1h 42mn
Bit rate mode: Constant
Bit rate: 448 Kbps
Channel(s): 6 channels
Channel positions: Front: L C R, Side: L R, LFE
Sampling rate: 48.0 KHz
Bit depth: 16 bits
Compression mode: Lossy
Stream size: 330 MiB (15%)




















Поделиться:




реклама партнёра


Вернуться к началу
 Профиль Отправить личное сообщение  
 
   Похожие торренты   Автор   Торрент   Размер 
В этой теме нет новых непрочитанных сообщений. Подрывники / Blown Away [боевик, триллер, драма, криминал, 1994] HDRip, Mvo

salma3

10 | 2

1.46 ГБ

В этой теме нет новых непрочитанных сообщений. Стеклянный щит / The Glass Shield [Драма, криминал, 1994] HDRip, Avo [Гаврилов]

salma3

49 | 3

1.46 ГБ

В этой теме нет новых непрочитанных сообщений. В спальне / In the Bedroom [драма, криминал, 2001] HDRip, Mvo

salma3

4 | 3

1.45 ГБ

В этой теме нет новых непрочитанных сообщений. 15 минут славы / 15 Minutes [Боевик, триллер, драма, криминал, 2001] HDRip, Mvo

salma3

23 | 3

1.46 ГБ

В этой теме нет новых непрочитанных сообщений. 15 минут славы / 15 Minutes [боевик, триллер, драма, криминал, 2001] HDRip-AVC, Dub

salma3

165 | 69

745.89 МБ

В этой теме нет новых непрочитанных сообщений. Ланиста Ботиата. Анализ фильма "Спартак", Стэнли Кубрика [Анализ ключевых эпизодов фильма, 2012] WEBRip

vairgin

1 | 4

2.82 ГБ

В этой теме нет новых непрочитанных сообщений. Методика допроса женщин. Анализ фильма "Основной инстинкт" [Психологический анализ фильма, 2012] WEBRip

vairgin

3 | 6

434.42 МБ


Начать новую тему Ответить на тему  [ 1 сообщение ] 




Для Мосгорсуда, Роскомнадзора и рекламодателей:: mosgorsud-torrent[собачка]yandex.ru