Торрент файл
скачать торрент магнет ссылка Добавлен: 10 янв 2012, 19:03
Размер: 6.54 ГБ
Сидеров: 56
Личеров: 23
Автор

СообщениеДобавлено: 10 янв 2012, 19:03 

Не в сети
Супермодератор
Аватара пользователя
Дата регистрации:
11 апр 2010, 18:10
Спасибо: 5801 / 7
Сообщения: 56779
Онг Бак / Ong bak

Перевод: Профессиональный (двухголосый)
Cубтитры:отсутствуют
Формат: HDRip-AVC, MKV, H.264, AC3
Страна: Тайланд
Режиссер: Прачья Пинкаю
Жанр: боевик
Продолжительность: 01:44:29
Год выпуска: 2003

В ролях: Петчтай Вонгкамлао, Тони Джа, Пумвари Йодкамол, Сухао Понгвилай, Чумпхорн Тепфитак, Чатевут Ватчаракхун, Ваннакит Сириопут, Рунграви Баридзиндакул, Чаттхапонг Пантанаункул, Нудхапол Асавабхахин

Описание: Действие фильма начинается в небольшой деревушке Нагпраду, расположенной на северо-востоке Таиланда, жителей которой постигает несчастье — пропала голова статуи Будды по имени Онг Бак. Для того, чтобы вернуть статую, требуется человек, обладающий не только умом, но и физической силой.

Единственный, кто отвечает этим требованиям, — это Тинг перенявший искусство Муай Тай (тайский бокс) у почитаемого в деревне монаха.




Видео: 1280х720 (16:9), 24 fps, MPEG4 AVC (x264) High@L4.1, ~2 619 Kbps avg, 0.118 bits/pixel
Аудио: 48.0 kHz, AC3, 6 ch, ~384 kbps avg


Общее
Уникальный идентификатор: 246686040497775526040636662357304081222 (0xB99600D3663EF3A08E3ECE12D458FB46)
Полное имя: D:\ong_bak_trilogy_[tfile.ru]\01. Онг Бак.mkv
Формат: Matroska
Размер файла: 2,18 Гбайт
Продолжительность: 1 ч. 44 м.
Общий поток: 2978 Кбит/сек
Название фильма: Rip by PunisheR
Дата кодирования: UTC 2011-06-05 19:00:09
Программа кодирования: mkvmerge v3.2.0 ('Beginnings') built on Feb 12 2010 16:46:17
Библиотека кодирования: libebml v0.7.9 + libmatroska v0.8.1

Видео
Идентификатор: 2
Формат: AVC
Формат/Информация: Advanced Video Codec
Профиль формата: High@L4.1
Параметр CABAC формата: Да
Параметр ReFrames формата: 3 кадра
Идентификатор кодека: V_MPEG4/ISO/AVC
Продолжительность: 1 ч. 44 м.
Вид битрейта: Переменный
Битрейт: 2619 Кбит/сек
Максимальный битрейт: 15,0 Мбит/сек
Ширина: 1280 пикс.
Высота: 720 пикс.
Соотношение сторон: 16:9
Частота кадров: 24,000 кадр/сек
Цветовое пространство: YUV
Подвыборка цветности: 4:2:0
Битовая глубина: 8 бит
Тип развёртки: Прогрессивная
Бит/(Пиксели*Кадры): 0.118
Размер потока: 1,86 Гбайт (85%)
Заголовок: Ong-bak.2003
Библиотека кодирования: x264 core 115 r1937 aa21558
Настройки программы: cabac=1 / ref=1 / deblock=1:0:0 / analyse=0x3:0x3 / me=dia / subme=1 / psy=1 / psy_rd=0.00:0.00 / mixed_ref=0 / me_range=16 / chroma_me=1 / trellis=0 / 8x8dct=1 / cqm=0 / deadzone=21,11 / fast_pskip=1 / chroma_qp_offset=0 / threads=6 / sliced_threads=0 / slices=4 / nr=0 / decimate=1 / interlaced=0 / bluray_compat=1 / constrained_intra=0 / bframes=3 / b_pyramid=1 / b_adapt=1 / b_bias=0 / direct=1 / weightb=1 / open_gop=0 / weightp=1 / keyint=24 / keyint_min=1 / scenecut=40 / intra_refresh=0 / rc_lookahead=0 / rc=abr / mbtree=0 / bitrate=2619 / ratetol=1.0 / qcomp=0.60 / qpmin=0 / qpmax=69 / qpstep=4 / vbv_maxrate=15000 / vbv_bufsize=15000 / nal_hrd=vbr / ip_ratio=1.10 / pb_ratio=1.10 / aq=1:1.00
Язык: Thai

Аудио
Идентификатор: 1
Формат: AC-3
Формат/Информация: Audio Coding 3
Расширение режима: CM (complete main)
Идентификатор кодека: A_AC3
Продолжительность: 1 ч. 44 м.
Вид битрейта: Постоянный
Битрейт: 384 Кбит/сек
Каналы: 6 каналов
Расположение каналов: Front: L C R, Side: L R, LFE
Частота: 48,0 КГц
Битовая глубина: 16 бит
Метод сжатия: С потерями
Размер потока: 288 Мбайт (13%)
Заголовок: Профессиональный двухголосый
Язык: Russian







Онг Бак 2: Непревзойденный / Ong bak 2

Перевод: Профессиональный (двухголосый)
Cубтитры:отсутствуют
Формат: HDRip-AVC, MKV, H.264, AC3
Страна: Тайланд
Режиссер: Тони Джа
Жанр: боевик
Продолжительность: 01:37:35
Год выпуска: 2008

В ролях: Тони Джа, Сарунью Вонгкрачанг, Сорапонг Чатри, Примората Дежудом, Нирут Сиричанья, Петчтай Вонгкамлао, Сантисук Промсири, Паттама Пантонг, Супакорн Китсувон, Натданай Конгтонг

Описание: В 1974 году по Буддийскому календарю и в 1421 году от рождества христова влияние королевского двора Аюттаия, времен правления короля Рама II, который сам был родом из этих мест стало более могущественным, чем Сукхотаи. И оно росло с каждым днем, расширяя свои владения на восток. Армия Аюттаия покорила Город Ангелов за 7 месяцев. Год и 3 месяца спустя городской глава Ратчасена, который долгое время вынашивал планы захвата трона начал уничтожать неугодных ему военноначальников. Одним из таких и стал генерал Сингхадачо, сын которого Тиан чудом остался жив и попал в деревню повстанцев Пха Пик Крут, где командир Чер Нан воспитал его, как родного сына. Прошли годы. Но Тиан, который возмужал и стал прекрасным бойцом так и не обрел покоя, омрачая каждый прожитый день черными мыслями о мести жестокому тирану Ратчасене. И день настал…



Видео: 1280х544 (2,35:1), 24 fps, MPEG4 AVC (x264) High@L4.1, ~2 845 Kbps avg, 0.170 bits/pixel
Аудио: 48.0 kHz, AC3, 6 ch, ~384 kbps avg


Общее
Уникальный идентификатор: 227224648567854129661128155738062074733 (0xAAF1E01F53000585A983300A4CF2336D)
Полное имя: D:\ong_bak_trilogy_[tfile.ru]\02. Онг Бак 2.mkv
Формат: Matroska
Размер файла: 2,19 Гбайт
Продолжительность: 1 ч. 37 м.
Общий поток: 3208 Кбит/сек
Название фильма: Rip by PunisheR
Дата кодирования: UTC 2011-06-05 20:34:57
Программа кодирования: mkvmerge v3.2.0 ('Beginnings') built on Feb 12 2010 16:46:17
Библиотека кодирования: libebml v0.7.9 + libmatroska v0.8.1

Видео
Идентификатор: 2
Формат: AVC
Формат/Информация: Advanced Video Codec
Профиль формата: High@L4.1
Параметр CABAC формата: Да
Параметр ReFrames формата: 3 кадра
Идентификатор кодека: V_MPEG4/ISO/AVC
Продолжительность: 1 ч. 37 м.
Вид битрейта: Переменный
Битрейт: 2845 Кбит/сек
Максимальный битрейт: 15,0 Мбит/сек
Ширина: 1280 пикс.
Высота: 544 пикс.
Соотношение сторон: 2,35:1
Соотношение сторон в оригинале: 2,35:1
Частота кадров: 24,000 кадр/сек
Цветовое пространство: YUV
Подвыборка цветности: 4:2:0
Битовая глубина: 8 бит
Тип развёртки: Прогрессивная
Бит/(Пиксели*Кадры): 0.170
Размер потока: 1,88 Гбайт (86%)
Заголовок: Ong.Bak.2.
Библиотека кодирования: x264 core 115 r1937 aa21558
Настройки программы: cabac=1 / ref=1 / deblock=1:0:0 / analyse=0x3:0x3 / me=dia / subme=1 / psy=1 / psy_rd=0.00:0.00 / mixed_ref=0 / me_range=16 / chroma_me=1 / trellis=0 / 8x8dct=1 / cqm=0 / deadzone=21,11 / fast_pskip=1 / chroma_qp_offset=0 / threads=6 / sliced_threads=0 / slices=4 / nr=0 / decimate=1 / interlaced=0 / bluray_compat=1 / constrained_intra=0 / bframes=3 / b_pyramid=1 / b_adapt=1 / b_bias=0 / direct=1 / weightb=1 / open_gop=0 / weightp=1 / keyint=24 / keyint_min=1 / scenecut=40 / intra_refresh=0 / rc_lookahead=0 / rc=abr / mbtree=0 / bitrate=2845 / ratetol=1.0 / qcomp=0.60 / qpmin=0 / qpmax=69 / qpstep=4 / vbv_maxrate=15000 / vbv_bufsize=15000 / nal_hrd=vbr / ip_ratio=1.10 / pb_ratio=1.10 / aq=1:1.00
Язык: Thai

Аудио
Идентификатор: 1
Формат: AC-3
Формат/Информация: Audio Coding 3
Расширение режима: CM (complete main)
Идентификатор кодека: A_AC3
Продолжительность: 1 ч. 37 м.
Вид битрейта: Постоянный
Битрейт: 384 Кбит/сек
Каналы: 6 каналов
Расположение каналов: Front: L C R, Side: L R, LFE
Частота: 48,0 КГц
Битовая глубина: 16 бит
Метод сжатия: С потерями
Размер потока: 268 Мбайт (12%)
Заголовок: Профессиональный (двухголосый, закадровый) [П.Гланц и И.Королёва]
Язык: Russian







Онг Бак 3 / Ong bak 3

Перевод: Профессиональный (двухголосый)
Cубтитры:отсутствуют
Формат: HDRip-AVC, MKV, H.264, AC3
Страна: Тайланд
Режиссер: Тони Джа, Панна Риттикрай
Жанр: боевик
Продолжительность: 01:38:37
Год выпуска: 2010

В ролях: Тони Джа, Дэн Чупонг, Сарунью Вонгкрачанг, Петчтай Вонгкамлао, Супакорн Китсувон, Примората Дежудом

Описание: Тиан снова сражается со своим противником — жестоким королем. Воины владыки до полусмерти избивают его и забирают в плен. Но ни пытки, ни душевные муки не сломили сопротивление доблестного воина. Король, не в силах справиться с пленником, решает убить Тиана. В день казни его чудом спасают жители родной деревни. Восстановив свои силы с помощью медитации, Тиан готов к решающей битве со злым черным колдуном.



Видео: 1280х544 (2,35:1), 24 fps, MPEG4 AVC (x264) High@L4.1, ~2 811 Kbps avg, 0.168 bits/pixel
Аудио: 48.0 kHz, AC3, 6 ch, ~384 kbps avg

Релиз группа:
Авторы Рипов:


Превью: Увеличение по клику


Общее
Уникальный идентификатор: 234728929472745039478276795435960448193 (0xB09725BC911DAC54ABB2748A83F734C1)
Полное имя: D:\ong_bak_trilogy_[tfile.ru]\03. Онг Бак 3.mkv
Формат: Matroska
Размер файла: 2,17 Гбайт
Продолжительность: 1 ч. 38 м.
Общий поток: 3148 Кбит/сек
Название фильма: Rip by Romeo
Дата кодирования: UTC 2010-10-16 17:44:38
Программа кодирования: mkvmerge v3.0.0 ('Hang up your Hang-Ups') built on Dec 12 2009 15:20:35
Библиотека кодирования: libebml v0.7.9 + libmatroska v0.8.1

Видео
Идентификатор: 1
Формат: AVC
Формат/Информация: Advanced Video Codec
Профиль формата: High@L4.1
Параметр CABAC формата: Да
Параметр ReFrames формата: 3 кадра
Идентификатор кодека: V_MPEG4/ISO/AVC
Продолжительность: 1 ч. 38 м.
Вид битрейта: Переменный
Битрейт: 2811 Кбит/сек
Максимальный битрейт: 17,5 Мбит/сек
Ширина: 1280 пикс.
Высота: 544 пикс.
Соотношение сторон: 2,35:1
Соотношение сторон в оригинале: 2,35:1
Частота кадров: 23,976 кадр/сек
Частота кадров в оригинале: 24,000 кадр/сек
Цветовое пространство: YUV
Подвыборка цветности: 4:2:0
Битовая глубина: 8 бит
Тип развёртки: Прогрессивная
Бит/(Пиксели*Кадры): 0.168
Размер потока: 1,86 Гбайт (86%)
Заголовок: Онг Бак 3.
Библиотека кодирования: x264 core 104 r1713 c276662
Настройки программы: cabac=1 / ref=1 / deblock=1:0:0 / analyse=0x3:0x3 / me=dia / subme=1 / psy=1 / psy_rd=0.00:0.00 / mixed_ref=0 / me_range=16 / chroma_me=1 / trellis=0 / 8x8dct=1 / cqm=0 / deadzone=21,11 / fast_pskip=1 / chroma_qp_offset=0 / threads=6 / sliced_threads=0 / slices=4 / nr=0 / decimate=1 / interlaced=0 / constrained_intra=0 / bframes=3 / b_pyramid=1 / b_adapt=1 / b_bias=0 / direct=1 / weightb=1 / open_gop=0 / weightp=0 / keyint=24 / keyint_min=1 / scenecut=40 / intra_refresh=0 / rc_lookahead=0 / rc=abr / mbtree=0 / bitrate=2811 / ratetol=1.0 / qcomp=0.60 / qpmin=0 / qpmax=51 / qpstep=4 / vbv_maxrate=17500 / vbv_bufsize=14500 / ip_ratio=1.10 / pb_ratio=1.10 / aq=1:1.00 / nal_hrd=vbr
Язык: English

Аудио
Идентификатор: 2
Формат: AC-3
Формат/Информация: Audio Coding 3
Расширение режима: CM (complete main)
Идентификатор кодека: A_AC3
Продолжительность: 1 ч. 38 м.
Вид битрейта: Постоянный
Битрейт: 384 Кбит/сек
Каналы: 6 каналов
Расположение каналов: Front: L C R, Side: L R, LFE
Частота: 48,0 КГц
Битовая глубина: 16 бит
Метод сжатия: С потерями
Задержка видео: 21 с.
Размер потока: 271 Мбайт (12%)
Заголовок: Профессиональный двухголосый
Язык: Russian





Поделиться:




реклама партнёра


Вернуться к началу
 Профиль Отправить личное сообщение  
 
   Похожие торренты   Автор   Торрент   Размер 
В этой теме нет новых непрочитанных сообщений. Двойная рокировка: Трилогия / Infernal Affairs: Trilogy (Вэй Кеунг Лау, Сиу Фай Мак / Wai Keung Lau, Siu Fai Mak)[ 2002г., Гонконг, боевик, драма, детектив, BDRip] Dub

Alfredovich

18 | 4

6.55 ГБ

В этой теме нет новых непрочитанных сообщений. Кунг-фу Панда:Трилогия / Kung Fu Panda:Trilogy (Марк Осборн, Джон Стивенсон,Алессандро Карлони, Дженнифер Ю) [2008-2016, Мультфильм, боевик, комедия, приключения, семейный , BDRip 1080p] [DD5.1] [Dub Rus , Ukr , Eng]+[Sub Rus , Ukr , Eng][

Враг Нароода

3 | 7

27.41 ГБ

В этой теме нет новых непрочитанных сообщений. Артур и минипуты: трилогия / Arthur et les Minimoys: Trilogy (2006, 2009, 2010) BDRip [1080p]

marya111

0 | 3

32.1 ГБ

В этой теме нет новых непрочитанных сообщений. Король Лев. Трилогия / The Lion King. Trilogy [мультфильм, мюзикл, драма, 1994-2004] BDRip, Dub

salma3

389 | 32

4.35 ГБ

В этой теме нет новых непрочитанных сообщений. Назад в будущее: Трилогия / Back to the Future Trilogy [фантастика, комедия, приключения, 1985-1990] BDRip, Dub

salma3

433 | 39

4.37 ГБ

В этой теме нет новых непрочитанных сообщений. Трудный Ребенок: Трилогия / Problem Child: Trilogy (Дэннис Дуган,Брайан Левант,Грег Биман) [1990-1995, Комедия, Семейный, DVDRip]

marya111

0 | 0

4.27 ГБ

В этой теме нет новых непрочитанных сообщений. Королева / Queen [драма, комедия, приключения, 2014] HDRip, Avo+Sub

salma3

15 | 6

2.05 ГБ


Начать новую тему Ответить на тему  [ 1 сообщение ] 




Для Мосгорсуда, Роскомнадзора и рекламодателей:: mosgorsud-torrent[собачка]yandex.ru