Торрент файл
скачать торрент магнет ссылка Добавлен: 10 янв 2012, 19:03
Размер: 8.46 ГБ
Сидеров: 25
Личеров: 16
Автор

СообщениеДобавлено: 10 янв 2012, 19:03 

Не в сети
Супермодератор
Аватара пользователя
Дата регистрации:
11 апр 2010, 18:10
Спасибо: 5799 / 7
Сообщения: 56779
Челюсти / Jaws


Перевод: Профессиональный (многоголосый, закадровый), cубтитры: отсутствуют
Формат: HDTVRip-AVC, MKV, H.264, AC3
Страна: США
Режиссер: Стивен Спилберг
Жанр: ужасы
Продолжительность: 02:04:00
Год выпуска: 1975

В ролях: Роберт Шоу, Ричард Дрейфус, Рой Шайдер, Лоррейн Гэри, Мюррэй Хэмилтон

Описание: Действие картины протекает в течение пяти дней — на острове Э?мити, где расположен небольшой курортный городок. В этом тихом и солнечном месте произошли ужасные трагические события, начало которым было положено ранним утром, когда шеф местной полиции Мартин Броуди и его помощник находят на берегу остатки тела девушки. Она стала первой жертвой огромной большой белой акулы, которая появилась у берегов Эмити…
С каждым днем число жертв кровожадной акулы продолжает увеличиваться. Сможет ли отважный охотник на акул, ветеран Второй мировой войны, рыбак Квинт на своём судне выловить и убить акулу-людоеда? В опасную морскую экспедицию вместе с ним отправляются Мартин Броуди и прибывший на остров эксперт из национального института океанографии Мэтт Хупер.




Видео: 1040 x 432 (2.40:1), 23.976 fps, AVC, х264, High@L4.1, ~ 2055 Kbps, 0.191 bit/pixel
Аудио: 48 kHz, AC3 Dolby Digital, 3/2 (L,C,R,l,r) + LFE ch, ~384 kbps


Рип: jeenart




General
Unique ID: 228973178263073755360414521251278445920 (0xAC42A14AD0A6F349AC47628C75CD5D60)
Complete name: F:\Мои релизы\Все релизы 9\celusti_[tfile.ru]\1_jaws_[tfile.ru].mkv
Format: Matroska
File size: 2.11 GiB
Duration: 2h 4mn
Overall bit rate: 2 441 Kbps
Encoded date: UTC 2011-06-19 12:06:25
Writing application: mkvmerge v4.6.0 ('Still Crazy After All These Years') сборка от Apr1 2011 21:01:49
Writing library: libebml v1.2.0 + libmatroska v1.1.0

Video
ID: 1
Format: AVC
Format/Info: Advanced Video Codec
Format profile: High@L4.1
Format settings, CABAC: Yes
Format settings, ReFrames: 3 frames
Codec ID: V_MPEG4/ISO/AVC
Duration: 2h 4mn
Bit rate: 2 055 Kbps
Width: 1 040 pixels
Height: 432 pixels
Display aspect ratio: 2.40:1
Frame rate: 23.976 fps
Color space: YUV
Chroma subsampling: 4:2:0
Bit depth: 8 bits
Scan type: Progressive
Bits/(Pixel*Frame): 0.191
Stream size: 1.74 GiB (82%)
Writing library: x264 core 115 r1937 aa21558
Encoding settings: cabac=1 / ref=3 / deblock=1:-1:-1 / analyse=0x3:0x113 / me=dia / subme=7 / psy=1 / psy_rd=1.00:0.10 / mixed_ref=1 / me_range=16 / chroma_me=1 / trellis=1 / 8x8dct=1 / cqm=0 / deadzone=21,11 / fast_pskip=1 / chroma_qp_offset=-3 / threads=6 / sliced_threads=0 / nr=0 / decimate=1 / interlaced=0 / bluray_compat=0 / constrained_intra=0 / bframes=1 / b_pyramid=0 / b_adapt=0 / b_bias=0 / direct=0 / weightb=1 / open_gop=0 / weightp=0 / keyint=250 / keyint_min=23 / scenecut=40 / intra_refresh=0 / rc_lookahead=40 / rc=2pass / mbtree=1 / bitrate=2055 / ratetol=1.0 / qcomp=0.60 / qpmin=0 / qpmax=69 / qpstep=4 / cplxblur=20.0 / qblur=0.5 / ip_ratio=1.40 / aq=1:1.00

Audio
ID: 2
Format: AC-3
Format/Info: Audio Coding 3
Mode extension: CM (complete main)
Codec ID: A_AC3
Duration: 2h 4mn
Bit rate mode: Constant
Bit rate: 384 Kbps
Channel(s): 6 channels
Channel positions: Front: L C R, Side: L R, LFE
Sampling rate: 48.0 KHz
Bit depth: 16 bits
Compression mode: Lossy
Stream size: 341 MiB (16%)
























Челюсти 2 / Jaws 2


Перевод: Профессиональный (многоголосый, закадровый), cубтитры: отсутствуют
Формат: HDTVRip-AVC, MKV, H.264, AC3
Страна: США
Режиссер: Жанно Шварц
Жанр: ужасы
Продолжительность: 01:55:57
Год выпуска: 1978

В ролях: Рой Шайдер, Лоррэйн Гэри, Мюррэй Хэмилтон, Коллин Уилкокс, Джеффри Крэймер, Джозеф Масколо

Описание: Акула-убийца, несколько лет назад терроризировавшая побережье курортного городка Эмити, вернулась! Гигантский хищник снова начал охоту. Рискуя жизнью, шеф полиции морского парка Мартин Броди вступает в борьбу с чудовищем, чей голод теперь во много раз сильнее!



Видео: 1024 x 432 (2.35:1), 23.976 fps, AVC, х264, High@L4.1, ~ 2225 Kbps, 0.210 bit/pixel
Аудио: 48 kHz, AC3 Dolby Digital, 3/2 (L,C,R,l,r) + LFE ch, ~384 kbps


Рип: jeenart
General
Unique ID: 238218951906408838127803380469455019109 (0xB3374D20AAC380A5AAA151FBFFB65C65)
Complete name: F:\Мои релизы\Все релизы 9\celusti_[tfile.ru]\2_jaws_[tfile.ru].mkv
Format: Matroska
File size: 2.11 GiB
Duration: 1h 55mn
Overall bit rate: 2 611 Kbps
Encoded date: UTC 2011-06-19 15:08:11
Writing application: mkvmerge v4.6.0 ('Still Crazy After All These Years') сборка от Apr1 2011 21:01:49
Writing library: libebml v1.2.0 + libmatroska v1.1.0

Video
ID: 1
Format: AVC
Format/Info: Advanced Video Codec
Format profile: High@L4.1
Format settings, CABAC: Yes
Format settings, ReFrames: 3 frames
Codec ID: V_MPEG4/ISO/AVC
Duration: 1h 55mn
Bit rate: 2 225 Kbps
Width: 1 024 pixels
Height: 432 pixels
Display aspect ratio: 2.35:1
Frame rate: 23.976 fps
Color space: YUV
Chroma subsampling: 4:2:0
Bit depth: 8 bits
Scan type: Progressive
Bits/(Pixel*Frame): 0.210
Stream size: 1.76 GiB (83%)
Writing library: x264 core 115 r1937 aa21558
Encoding settings: cabac=1 / ref=3 / deblock=1:-1:-1 / analyse=0x3:0x113 / me=dia / subme=7 / psy=1 / psy_rd=1.00:0.10 / mixed_ref=1 / me_range=16 / chroma_me=1 / trellis=1 / 8x8dct=1 / cqm=0 / deadzone=21,11 / fast_pskip=1 / chroma_qp_offset=-3 / threads=6 / sliced_threads=0 / nr=0 / decimate=1 / interlaced=0 / bluray_compat=0 / constrained_intra=0 / bframes=1 / b_pyramid=0 / b_adapt=0 / b_bias=0 / direct=0 / weightb=1 / open_gop=0 / weightp=0 / keyint=250 / keyint_min=23 / scenecut=40 / intra_refresh=0 / rc_lookahead=40 / rc=2pass / mbtree=1 / bitrate=2225 / ratetol=1.0 / qcomp=0.60 / qpmin=0 / qpmax=69 / qpstep=4 / cplxblur=20.0 / qblur=0.5 / ip_ratio=1.40 / aq=1:1.00

Audio
ID: 2
Format: AC-3
Format/Info: Audio Coding 3
Mode extension: CM (complete main)
Codec ID: A_AC3
Duration: 1h 55mn
Bit rate mode: Constant
Bit rate: 384 Kbps
Channel(s): 2 channels
Channel positions: Front: L R
Sampling rate: 48.0 KHz
Bit depth: 16 bits
Compression mode: Lossy
Stream size: 318 MiB (15%)
























Челюсти 3 / Jaws 3-D


Перевод: Профессиональный (многоголосый, закадровый), cубтитры: отсутствуют
Формат: HDTVRip-AVC, MKV, H.264, AC3
Страна: США
Режиссер: Джо Элвс
Жанр: ужасы
Продолжительность: 01:38:15
Год выпуска: 1983

В ролях: Деннис Куэйд, Бесс Армстронг, Саймон МакКоркиндейл, Луис Госсет мл., Джон Путч, Лиа Томпсон, П.Х. Мориарти, Дэн Бласко, Лиз Моррис, Лиза Морер

Описание: Руководство крупнейшего во Флориде океанического парка развлечений после появления в прибрежных водах большой белой акулы решает поймать её для дополнительного привлечения туристов.
Спустя некоторое время работники парка Майк Броди и Кетлин Морган понимают, что пойманная ими акула — детёныш, а в акваторию проникла её огромная мамаша…




Видео: 1072 x 456 (2.35:1), 23.976 fps, AVC, х264, High@L4.1, ~ 2700 Kbps, 0.230 bit/pixel
Аудио: 48 kHz, AC3 Dolby Digital, 3/2 (L,C,R,l,r) + LFE ch, ~384 kbps


Рип: jeenart
General
Unique ID: 220001822770078695570298723607539763564 (0xA582CF50F88853C3A458FA484876496C)
Complete name: F:\Мои релизы\Все релизы 9\celusti_[tfile.ru]\3_jaws_[tfile.ru].mkv
Format: Matroska
File size: 2.12 GiB
Duration: 1h 38mn
Overall bit rate: 3 085 Kbps
Encoded date: UTC 2011-06-19 17:37:12
Writing application: mkvmerge v4.6.0 ('Still Crazy After All These Years') сборка от Apr1 2011 21:01:49
Writing library: libebml v1.2.0 + libmatroska v1.1.0

Video
ID: 1
Format: AVC
Format/Info: Advanced Video Codec
Format profile: High@L4.1
Format settings, CABAC: Yes
Format settings, ReFrames: 3 frames
Codec ID: V_MPEG4/ISO/AVC
Duration: 1h 38mn
Bit rate: 2 700 Kbps
Width: 1 072 pixels
Height: 456 pixels
Display aspect ratio: 2.35:1
Frame rate: 23.976 fps
Color space: YUV
Chroma subsampling: 4:2:0
Bit depth: 8 bits
Scan type: Progressive
Bits/(Pixel*Frame): 0.230
Stream size: 1.81 GiB (86%)
Writing library: x264 core 115 r1937 aa21558
Encoding settings: cabac=1 / ref=3 / deblock=1:-1:-1 / analyse=0x3:0x113 / me=dia / subme=7 / psy=1 / psy_rd=1.00:0.10 / mixed_ref=1 / me_range=16 / chroma_me=1 / trellis=1 / 8x8dct=1 / cqm=0 / deadzone=21,11 / fast_pskip=1 / chroma_qp_offset=-3 / threads=6 / sliced_threads=0 / nr=0 / decimate=1 / interlaced=0 / bluray_compat=0 / constrained_intra=0 / bframes=1 / b_pyramid=0 / b_adapt=0 / b_bias=0 / direct=0 / weightb=1 / open_gop=0 / weightp=0 / keyint=250 / keyint_min=23 / scenecut=40 / intra_refresh=0 / rc_lookahead=40 / rc=2pass / mbtree=1 / bitrate=2700 / ratetol=1.0 / qcomp=0.60 / qpmin=0 / qpmax=69 / qpstep=4 / cplxblur=20.0 / qblur=0.5 / ip_ratio=1.40 / aq=1:1.00

Audio
ID: 2
Format: AC-3
Format/Info: Audio Coding 3
Mode extension: CM (complete main)
Codec ID: A_AC3
Duration: 1h 38mn
Bit rate mode: Constant
Bit rate: 384 Kbps
Channel(s): 6 channels
Channel positions: Front: L C R, Side: L R, LFE
Sampling rate: 48.0 KHz
Bit depth: 16 bits
Compression mode: Lossy
Stream size: 270 MiB (12%)
























Челюсти 4: Месть / Jaws: The Revenge


Перевод: Профессиональный (многоголосый, закадровый), cубтитры: отсутствуют
Формат: HDTVRip-AVC, MKV, H.264, AC3
Страна: США
Режиссер: Джозеф Сарджент
Жанр: ужасы
Продолжительность: 01:29:59
Год выпуска: 1987

В ролях: Лоррэйн Гари, Лэнс Гест, Марио Ван Пиблз, Майкл Кейн, Карен Янг, Джудит Барси, Линн Уитфилд, Митчел Андерсон, Джей Мелло, Седрик Скотт

Описание: Полицейский Мартин Броди умирает от сердечного приступа. Его младший сын Шон погибает в схватке с большой белой акулой. Эллен Броди абсолютно убеждена, что гигантское белое чудовище мстит ее семье. Миссис Броди летит на Багамы к старшему сыну Майклу, который работает морским биологом, чтобы предупредить о смертельной опасности…



Видео: 1072 x 456 (2.35:1), 23.976 fps, AVC, х264, High@L4.1, ~ 2977 Kbps, 0.254 bit/pixel
Аудио: 48 kHz, AC3 Dolby Digital, 3/2 (L,C,R,l,r) + LFE ch, ~384 kbps


Рип: jeenart
General
Unique ID: 218993775637477227779630138856256806674 (0xA4C0AAC164F4B8D28FE682FA48879F12)
Complete name: F:\Мои релизы\Все релизы 9\celusti_[tfile.ru]\4_jaws_[tfile.ru].mkv
Format: Matroska
File size: 2.11 GiB
Duration: 1h 29mn
Overall bit rate: 3 362 Kbps
Encoded date: UTC 2011-06-19 20:20:37
Writing application: mkvmerge v4.6.0 ('Still Crazy After All These Years') сборка от Apr1 2011 21:01:49
Writing library: libebml v1.2.0 + libmatroska v1.1.0

Video
ID: 1
Format: AVC
Format/Info: Advanced Video Codec
Format profile: High@L4.1
Format settings, CABAC: Yes
Format settings, ReFrames: 3 frames
Codec ID: V_MPEG4/ISO/AVC
Duration: 1h 29mn
Bit rate: 2 977 Kbps
Width: 1 072 pixels
Height: 456 pixels
Display aspect ratio: 2.35:1
Frame rate: 23.976 fps
Color space: YUV
Chroma subsampling: 4:2:0
Bit depth: 8 bits
Scan type: Progressive
Bits/(Pixel*Frame): 0.254
Stream size: 1.83 GiB (87%)
Writing library: x264 core 115 r1937 aa21558
Encoding settings: cabac=1 / ref=3 / deblock=1:-1:-1 / analyse=0x3:0x113 / me=dia / subme=7 / psy=1 / psy_rd=1.00:0.10 / mixed_ref=1 / me_range=16 / chroma_me=1 / trellis=1 / 8x8dct=1 / cqm=0 / deadzone=21,11 / fast_pskip=1 / chroma_qp_offset=-3 / threads=6 / sliced_threads=0 / nr=0 / decimate=1 / interlaced=0 / bluray_compat=0 / constrained_intra=0 / bframes=1 / b_pyramid=0 / b_adapt=0 / b_bias=0 / direct=0 / weightb=1 / open_gop=0 / weightp=0 / keyint=250 / keyint_min=23 / scenecut=40 / intra_refresh=0 / rc_lookahead=40 / rc=2pass / mbtree=1 / bitrate=2977 / ratetol=1.0 / qcomp=0.60 / qpmin=0 / qpmax=69 / qpstep=4 / cplxblur=20.0 / qblur=0.5 / ip_ratio=1.40 / aq=1:1.00

Audio
ID: 2
Format: AC-3
Format/Info: Audio Coding 3
Mode extension: CM (complete main)
Codec ID: A_AC3
Duration: 1h 29mn
Bit rate mode: Constant
Bit rate: 384 Kbps
Channel(s): 6 channels
Channel positions: Front: L C R, Side: L R, LFE
Sampling rate: 48.0 KHz
Bit depth: 16 bits
Compression mode: Lossy
Stream size: 247 MiB (11%)






















Поделиться:




реклама партнёра


Вернуться к началу
 Профиль Отправить личное сообщение  
 
   Похожие торренты   Автор   Торрент   Размер 
В этой теме нет новых непрочитанных сообщений. Челюсти / Jaws [ужасы, триллер, приключени, 1975] BDRip. Mvo

salma3

43 | 4

1.47 ГБ

В этой теме нет новых непрочитанных сообщений. Челюсти 2 / Jaws 2 [Приключения, Ужасы, 1978] HDTVRip-AVC, Mvo

salma3

54 | 10

2.19 ГБ

В этой теме нет новых непрочитанных сообщений. Челюсти 4: Месть / Jaws 4: The Revenge [Триллер, 1987] BDRemux 1080p, Mvo+Sub

salma3

6 | 0

23.36 ГБ

В этой теме нет новых непрочитанных сообщений. Зубастики. Квадрология / Critters. Quadrilogy (Стивен Херек, Мик Гэррис, Кристин Питерсон, Руперт Харви.) [ужасы, фантастика, боевик, триллер, комедия, 1986-1992] WEB-DLRip-AVC, Mvo+Avo+Sub

Dracon

60 | 14

8.72 ГБ

В этой теме нет новых непрочитанных сообщений. Большой и добрый великан / The BFG (Стивен Спилберг) [2016, Фэнтези, экранизация, приключения, семейный, HDRip-AVC | Line]

marya111

571 | 24

1.45 ГБ

В этой теме нет новых непрочитанных сообщений. Большой и добрый великан / The BFG (Стивен Спилберг) [2016, Фэнтези, экранизация, приключения, семейный, HDRip | Line] Dub

marya111

642 | 54

746.05 МБ

В этой теме нет новых непрочитанных сообщений. Шпионский мост / Bridge of Spies (Стивен Спилберг) [2015, триллер, драма, биография, BDRip-AVC | Чистый звук] Dub

PriZraK

5246 | 204

2.87 ГБ


Начать новую тему Ответить на тему  [ 1 сообщение ] 




Для Мосгорсуда, Роскомнадзора и рекламодателей:: mosgorsud-torrent[собачка]yandex.ru