Торрент файл
скачать торрент магнет ссылка Добавлен: 10 янв 2012, 19:03
Размер: 4.37 ГБ
Сидеров: 49
Личеров: 11
Автор

СообщениеДобавлено: 10 янв 2012, 19:03 

Не в сети
Супермодератор
Аватара пользователя
Дата регистрации:
11 апр 2010, 18:10
Спасибо: 5801 / 7
Сообщения: 56779
Плохие парни / Bad boys


Перевод: Профессиональный (полное дублирование), cубтитры: отсутствуют
Формат: HDTVRip, AVI,XviD, AC3
Страна: США
Режиссер: Майкл Бэй
Жанр: Боевик, комедия
Продолжительность: 01:58:50
Год выпуска: 1995
В ролях: Мартин Лоуренс, Уилл Смит, Теа Леони, Чеки Карио, Джо Пантольяно, Тереза Рэндл, Марж Хелгенбергер, Нестор Серрано, Хулио Оскар Мечосо, Саверио Гуэрра
Описание: Они — полная противоположность друг друга. Один из них — примерный семьянин и не имеет состояния, другой богат и пользуется всеми благами холостяцкой жизни. Помимо дружбы их объединяет работа в полиции.
Их новое задание — поймать жестокого преступника, укравшего наркотики с секретного склада, а также спасти девушку, которая случайно оказалась на его пути. Но для этого друзьям придется поменяться местами…

[/field]


Видео: 720x400 (1.80:1), 23.976 fps, XviD build 50 ~1854 kbps avg, 0.27 bit/pixel
Аудио #1: Русский: 48 kHz, AC3 Dolby Digital, 3/2 (L,C,R,l,r) + LFE ch, ~384 kbps [Профессиональный (полное дублирование)]
Аудио #2: Английский: 48 kHz, AC3 Dolby Digital, 3/2 (L,C,R,l,r) + LFE ch, ~384 kbps [Оригинал]

Общее:
Полное имя: D:\Для сайта\Plohie_Parni_Dilogiya_[tfile]\Plohie_Parny_[tfile].avi
Формат: AVI
Формат/Информация: Audio Video Interleave
Профиль формата: OpenDML
Размер файла: 2,18 Гбайт
Продолжительность: 1 ч. 58 м.
Общий поток: 2629 Кбит/сек
Название фильма: Плохие парни / Bad Boys (1995) HDTVRip
Режиссёр: In-Yan
Программа кодирования: VirtualDubModRus 1.5.10.2 (build 2542/release)
Правообладатель: http://www.hellywood.ru/
Примечание: 25.09.2009

Видео:
Идентификатор: 0
Формат: MPEG-4 Visual
Профиль формата: Advanced Simple@L5
Параметр BVOP формата: 1
Параметр QPel формата: Нет
Параметр GMC формата: Без точки перехода
Параметр матрицы формата: Default (MPEG)
Идентификатор кодека: XVID
Идентификатор кодека/Подсказка: XviD
Продолжительность: 1 ч. 58 м.
Битрейт: 1844 Кбит/сек
Ширина: 720 пикс.
Высота: 400 пикс.
Соотношение сторон: 16:9
Частота кадров: 23,976 кадр/сек
Цветовое пространство: YUV
Подвыборка цветности: 4:2:0
Битовая глубина: 8 бит
Тип развёртки: Прогрессивная
Метод сжатия: С потерями
Бит/(Пиксели*Кадры): 0.267
Размер потока: 1,53 Гбайт (70%)
Библиотека кодирования: XviD 1.2.1 (UTC 2008-12-04)

Аудио #1:
Идентификатор: 1
Формат: AC-3
Формат/Информация: Audio Coding 3
Расширение режима: CM (complete main)
Идентификатор кодека: 2000
Продолжительность: 1 ч. 58 м.
Вид битрейта: Постоянный
Битрейт: 384 Кбит/сек
Канал(ы): 6 канала(ов)
Расположение каналов: Front: L C R, Side: L R, LFE
Частота: 48,0 КГц
Битовая глубина: 16 бит
Метод сжатия: С потерями
Размер потока: 326 Мбайт (15%)
Выравнивание: Разделение по промежуткам
Продолжительность промежутка: 42мс. (1,00 видеокадр)
Время предзагрузки промежутка: 500 ms

Аудио #2:
Идентификатор: 2
Формат: AC-3
Формат/Информация: Audio Coding 3
Расширение режима: CM (complete main)
Идентификатор кодека: 2000
Продолжительность: 1 ч. 58 м.
Вид битрейта: Постоянный
Битрейт: 384 Кбит/сек









Плохие парни 2 / Bad Boys 2


Перевод: Профессиональный (полное дублирование), cубтитры: отсутствуют
Формат: HDTVRip, AVI,XviD, AC3
Страна: США
Режиссер: Майкл Бэй
Жанр: Боевик, комедия
Продолжительность:02:22:40
Год выпуска: 2003
В ролях:Мартин Лоуренс, Уилл Смит, Хорди Молья, Гэбриэл Юнион, Петер Стормаре, Тереза Рэндл, Джо Пантольяно, Майкл Шэннон, Джон Седа, Юл Васкез
Описание: Детективы отдела по борьбе с незаконным оборотом наркотиков Майк Лоури и Маркус Бэрнетт получают задание расследовать схему доставки нового наркотика в Майами. Это расследование выводит их на искусный заговор, сплетенный местным наркобароном с целью поставить под контроль всю торговлю наркотиками в городе.
По чистой случайности про эти амбициозные планы узнают и остальные игроки нелегального рынка, в результате чего вспыхивает настоящая война. Несмотря на это, Майку и Маркусу удается успешно справляться с натиском наркомафии и сажать дилеров за решетку. Но ситуация начинает выходить из-под контроля, когда Майк не на шутку увлекается сестрой Маркуса, Сидни.
Торжество закона висит на волоске — ведь вместо выполнения спецзаданий детективы начинают выяснять отношения между собой……




Видео: 720x400 (1.80:1), 23.976 fps, XviD build 50 ~1737 kbps avg, 0.25 bit/pixel
Аудио: 48 kHz, AC3 Dolby Digital, 3/2 (L,C,R,l,r) + LFE ch, ~384 kbps

Общее:
Полное имя: D:\Для сайта\Plohie_Parni_Dilogiya_[tfile]\Plohie_Parny_2_[tfile].avi
Формат: AVI
Формат/Информация: Audio Video Interleave
Профиль формата: OpenDML
Размер файла: 2,18 Гбайт
Продолжительность: 2 ч. 22 м.
Общий поток: 2192 Кбит/сек
Название фильма: Плохие парни 2 / Bad Boys 2 (2003) HDTVRip
Режиссёр: In-Yan
Программа кодирования: VirtualDubModRus 1.5.10.2 (build 2542/release)
Правообладатель: http://www.hellywood.ru/
Примечание: 26.09.2009

Видео:
Идентификатор: 0
Формат: MPEG-4 Visual
Профиль формата: Advanced Simple@L5
Параметр BVOP формата: 1
Параметр QPel формата: Нет
Параметр GMC формата: Без точки перехода
Параметр матрицы формата: Default (MPEG)
Идентификатор кодека: XVID
Идентификатор кодека/Подсказка: XviD
Продолжительность: 2 ч. 22 м.
Битрейт: 1732 Кбит/сек
Ширина: 720 пикс.
Высота: 400 пикс.
Соотношение сторон: 16:9
Частота кадров: 23,976 кадр/сек
Цветовое пространство: YUV
Подвыборка цветности: 4:2:0
Битовая глубина: 8 бит
Тип развёртки: Прогрессивная
Метод сжатия: С потерями
Бит/(Пиксели*Кадры): 0.251
Размер потока: 1,73 Гбайт (79%)
Библиотека кодирования: XviD 1.2.1 (UTC 2008-12-04)

Аудио:
Идентификатор: 1
Формат: AC-3
Формат/Информация: Audio Coding 3
Расширение режима: CM (complete main)
Идентификатор кодека: 2000
Продолжительность: 2 ч. 22 м.
Вид битрейта: Постоянный
Битрейт: 448 Кбит/сек
Канал(ы): 6 канала(ов)
Расположение каналов: Front: L C R, Side: L R, LFE
Частота: 48,0 КГц
Битовая глубина: 16 бит
Метод сжатия: С потерями
Размер потока: 457 Мбайт (20%)
Выравнивание: Разделение по промежуткам
Продолжительность промежутка: 42мс. (1,00 видеокадр)
Время предзагрузки промежутка: 500 ms







Поделиться:




реклама партнёра


Вернуться к началу
 Профиль Отправить личное сообщение  
 
   Похожие торренты   Автор   Торрент   Размер 
В этой теме нет новых непрочитанных сообщений. Плохие парни / Bad Boys [Комедия, боевик, 1995] BDRip 1080p, Dub+Mvo+Avo+Sub

salma3

61 | 12

12.94 ГБ

В этой теме нет новых непрочитанных сообщений. Плохие парни 2 / Bad Boys II [Боевик, криминал, комедия, 2003] BDRip-AVC, Dub+Mvo+Avo+Sub

salma3

34 | 5

4.54 ГБ

В этой теме нет новых непрочитанных сообщений. Плохие парни 2 / Bad Boys II [Боевик, Приключения, Комедия, 2003] HDRip, Avo

salma3

52 | 2

2.19 ГБ

В этой теме нет новых непрочитанных сообщений. Плохие парни 2 / Bad Boys II [боевик, триллер, комедия, 2003] DVD9, Dub+Sub

salma3

23 | 8

5.66 ГБ

В этой теме нет новых непрочитанных сообщений. Плохие парни 2 / Bad Boys II [боевик, триллер, комедия, криминал, 2003] BDRip 720p, Dub+Sub

salma3

1 | 3

16.94 ГБ

В этой теме нет новых непрочитанных сообщений. Плохие парни / Bad Boys [боевик, триллер, драма, 1995] DVD9, Mvo+Dub+Sub

salma3

18 | 6

4.91 ГБ

В этой теме нет новых непрочитанных сообщений. Старые, добрые парни / The Good Old Boys [приключения, вестерн, 1995] DVDRip, Dvo+Avo

salma3

32 | 4

1.45 ГБ


Начать новую тему Ответить на тему  [ 1 сообщение ] 




Для Мосгорсуда, Роскомнадзора и рекламодателей:: mosgorsud-torrent[собачка]yandex.ru