Торрент файл
скачать торрент магнет ссылка Добавлен: 10 янв 2012, 19:02
Размер: 4.2 ГБ
Сидеров: 22
Личеров: 10
Автор

СообщениеДобавлено: 10 янв 2012, 19:02 

Не в сети
Супермодератор
Аватара пользователя
Дата регистрации:
11 апр 2010, 18:10
Спасибо: 5799 / 7
Сообщения: 56779
Розовая пантера / The Pink Panther


Перевод: Профессиональный (полное дублирование), cубтитры: отсутствуют
Формат: HDRip-AVC, MKV, H.264, AC3
Страна: США, Чехия
Режиссер: Шон Леви
Жанр: комедия, криминал, детектив, приключения
Продолжительность: 01:32:45
Год выпуска: 2006

В ролях: Стив Мартин, Кевин Клайн, Жан Рено, Эмили Мортимер, Генри Черны, Кристин Ченоуэт, Роджер Риис, Бейонс Ноулз, Филлип Гудвин, Анри Гарсен, Уильям Абади, Дэниэл Саули, Жан Делл, Анна Катарина, Сэлли Люн Байер, Шарлотта Мэйер, Стефан Буше, Скотт Эдкинс

Описание: С руки застреленного легендарного футбольного тренера исчезает огромный бриллиант, известный как «Розовая пантера». Расследование инцидента поручается случайно оказавшемуся на месте преступления недотепе-инспектору Клузо.



Видео: 992 x 536 (1.85:1), 23.976 fps, AVC, х264, High@L4.1, ~ 2859 Kbps, 0.224 bit/pixel
Аудио: 48 kHz, AC3 Dolby Digital, 3/2 (L,C,R,l,r) + LFE ch, ~384 kbps


Рип: jeenart

General
Unique ID: 183716882963170733502006689034878711527 (0x8A3695A99450761F849017DF1C0DF6E7)
Complete name: F:\Мои релизы\Все релизы 10\rozovaj_pantera_[tfile.ru]\1_rozovaj_pantera_[tfile.ru].mkv
Format: Matroska
File size: 2.10 GiB
Duration: 1h 32mn
Overall bit rate: 3 243 Kbps
Encoded date: UTC 2011-07-02 10:56:40
Writing application: mkvmerge v4.6.0 ('Still Crazy After All These Years') сборка от Apr1 2011 21:01:49
Writing library: libebml v1.2.0 + libmatroska v1.1.0

Video
ID: 1
Format: AVC
Format/Info: Advanced Video Codec
Format profile: High@L4.1
Format settings, CABAC: Yes
Format settings, ReFrames: 3 frames
Codec ID: V_MPEG4/ISO/AVC
Duration: 1h 32mn
Bit rate: 2 859 Kbps
Width: 992 pixels
Height: 536 pixels
Display aspect ratio: 1.851
Frame rate: 23.976 fps
Color space: YUV
Chroma subsampling: 4:2:0
Bit depth: 8 bits
Scan type: Progressive
Bits/(Pixel*Frame): 0.224
Stream size: 1.81 GiB (86%)
Writing library: x264 core 115 r1937 aa21558
Encoding settings: cabac=1 / ref=3 / deblock=1:-1:-1 / analyse=0x3:0x113 / me=dia / subme=7 / psy=1 / psy_rd=1.00:0.10 / mixed_ref=1 / me_range=16 / chroma_me=1 / trellis=1 / 8x8dct=1 / cqm=0 / deadzone=21,11 / fast_pskip=1 / chroma_qp_offset=-3 / threads=6 / sliced_threads=0 / nr=0 / decimate=1 / interlaced=0 / bluray_compat=0 / constrained_intra=0 / bframes=1 / b_pyramid=0 / b_adapt=0 / b_bias=0 / direct=0 / weightb=1 / open_gop=0 / weightp=0 / keyint=250 / keyint_min=23 / scenecut=40 / intra_refresh=0 / rc_lookahead=40 / rc=2pass / mbtree=1 / bitrate=2859 / ratetol=1.0 / qcomp=0.60 / qpmin=0 / qpmax=69 / qpstep=4 / cplxblur=20.0 / qblur=0.5 / ip_ratio=1.40 / aq=1:1.00

Audio
ID: 2
Format: AC-3
Format/Info: Audio Coding 3
Mode extension: CM (complete main)
Codec ID: A_AC3
Duration: 1h 32mn
Bit rate mode: Constant
Bit rate: 384 Kbps
Channel(s): 6 channels
Channel positions: Front: L C R, Side: L R, LFE
Sampling rate: 48.0 KHz
Bit depth: 16 bits
Compression mode: Lossy
Stream size: 255 MiB (12%)


























Розовая пантера 2 / The Pink Panther 2


Перевод: Профессиональный (полное дублирование), cубтитры: отсутствуют
Формат: HDRip-AVC, MKV, H.264, AC3
Страна: США
Режиссер: Харольд Цварт
Жанр: комедия, криминал, детектив, приключения
Продолжительность: 01:32:01
Год выпуска: 2009

В ролях: Стив Мартин, Жан Рено, Эмили Мортимер, Энди Гарсиа, Юки Мацудзаки, Альфред Молина, Айшвария Рай, Джон Клиз, Роджер Диллингэм-мл., Харолд Чин, Федерико Кастеллуччо, Джон Диксон, Жюдит Годреш, Молли Симс

Описание: Успех предыдущей миссии Жака Клюзо позволил инспектору-катастрофе занять место среди лучших детективов мира. В этот раз ему предстоит поймать международного преступника, похищающего исторические ценности, и снова вернуть «Розовую пантеру» на место..



Видео: 944 x 512 (1.84:1), 23.976 fps, AVC, х264, High@L4.1, ~ 2885 Kbps, 0.249 bit/pixel
Аудио: 48 kHz, AC3 Dolby Digital, 3/2 (L,C,R,l,r) + LFE ch, ~384 kbps


Рип: jeenart

General
Unique ID: 237910342573991284049343933726338671239 (0xB2FBDD83450EC4EA9049B04FEB556287)
Complete name: F:\Мои релизы\Все релизы 10\rozovaj_pantera_[tfile.ru]\2_rozovaj_pantera_[tfile.ru].mkv
Format: Matroska
File size: 2.10 GiB
Duration: 1h 32mn
Overall bit rate: 3 268 Kbps
Encoded date: UTC 2011-07-02 14:51:57
Writing application: mkvmerge v4.6.0 ('Still Crazy After All These Years') сборка от Apr1 2011 21:01:49
Writing library: libebml v1.2.0 + libmatroska v1.1.0

Video
ID: 1
Format: AVC
Format/Info: Advanced Video Codec
Format profile: High@L4.1
Format settings, CABAC: Yes
Format settings, ReFrames: 3 frames
Codec ID: V_MPEG4/ISO/AVC
Duration: 1h 32mn
Bit rate: 2 885 Kbps
Width: 944 pixels
Height: 512 pixels
Display aspect ratio: 16:9
Frame rate: 23.976 fps
Color space: YUV
Chroma subsampling: 4:2:0
Bit depth: 8 bits
Scan type: Progressive
Bits/(Pixel*Frame): 0.249
Stream size: 1.81 GiB (86%)
Writing library: x264 core 115 r1937 aa21558
Encoding settings: cabac=1 / ref=3 / deblock=1:-1:-1 / analyse=0x3:0x113 / me=dia / subme=7 / psy=1 / psy_rd=1.00:0.10 / mixed_ref=1 / me_range=16 / chroma_me=1 / trellis=1 / 8x8dct=1 / cqm=0 / deadzone=21,11 / fast_pskip=1 / chroma_qp_offset=-3 / threads=6 / sliced_threads=0 / nr=0 / decimate=1 / interlaced=0 / bluray_compat=0 / constrained_intra=0 / bframes=1 / b_pyramid=0 / b_adapt=0 / b_bias=0 / direct=0 / weightb=1 / open_gop=0 / weightp=0 / keyint=250 / keyint_min=23 / scenecut=40 / intra_refresh=0 / rc_lookahead=40 / rc=2pass / mbtree=1 / bitrate=2885 / ratetol=1.0 / qcomp=0.60 / qpmin=0 / qpmax=69 / qpstep=4 / cplxblur=20.0 / qblur=0.5 / ip_ratio=1.40 / aq=1:1.00

Audio
ID: 2
Format: AC-3
Format/Info: Audio Coding 3
Mode extension: CM (complete main)
Codec ID: A_AC3
Duration: 1h 32mn
Bit rate mode: Constant
Bit rate: 384 Kbps
Channel(s): 6 channels
Channel positions: Front: L C R, Side: L R, LFE
Sampling rate: 48.0 KHz
Bit depth: 16 bits
Compression mode: Lossy
Stream size: 253 MiB (12%)






















Поделиться:




реклама партнёра


Вернуться к началу
 Профиль Отправить личное сообщение  
 
   Похожие торренты   Автор   Торрент   Размер 
В этой теме нет новых непрочитанных сообщений. Рейд: Дилогия / The Raid: Redemption / Serbuan maut: Dilogy [боевик, триллер, криминал, 2011-2014] HDRip, Dub

salma3

141 | 17

2.91 ГБ

В этой теме нет новых непрочитанных сообщений. Мачо и ботан: Дилогия / Jump Street: Dilogy [комедия, боевик, криминал, 2012-2014] BDRip, Dub [Лицензия]

salma3

84 | 14

4.36 ГБ

В этой теме нет новых непрочитанных сообщений. Ночь в музее: Секрет гробницы / Night at the Museum: Secret of the Tomb (Шон Леви) [Фэнтези, комедия, приключения, семейный, 2015] HDRip, Dub [iTunes]

Dracon

21 | 2

1.37 ГБ

В этой теме нет новых непрочитанных сообщений. Ночь в музее: Секрет гробницы / Night at the Museum: Secret of the Tomb (Шон Леви) [Фэнтези, комедия, приключения, семейный, 2015] HDRip, Dub [Лицензия]

Dracon

120 | 10

1.41 ГБ

В этой теме нет новых непрочитанных сообщений. Ночь в музее: Секрет гробницы / Night at the Museum: Secret of the Tomb (Шон Леви) [Фэнтези, комедия, приключения, семейный, 2015] HDRip, dub [Чистый Звук]

Dracon

334 | 5

1.36 ГБ

В этой теме нет новых непрочитанных сообщений. Швея / The Seamstress [ужасы, триллер, криминал, детектив, 2009] HDRip, Mvo [Кинопоказ]

salma3

64 | 19

1.35 ГБ

В этой теме нет новых непрочитанных сообщений. Заложница: Дилогия / Taken: Dilogy [боевик, триллер, криминал , 2008-2012] BDRip, Dub

salma3

123 | 15

2.91 ГБ


Начать новую тему Ответить на тему  [ 1 сообщение ] 




Для Мосгорсуда, Роскомнадзора и рекламодателей:: mosgorsud-torrent[собачка]yandex.ru