Торрент файл
скачать торрент магнет ссылка Добавлен: 10 янв 2012, 19:02
Размер: 5.82 ГБ
Сидеров: 14
Личеров: 11
Автор

СообщениеДобавлено: 10 янв 2012, 19:02 

Не в сети
Супермодератор
Аватара пользователя
Дата регистрации:
11 апр 2010, 18:10
Спасибо: 5799 / 7
Сообщения: 56779
Крепкий орешек / Die Hard


Перевод: Профессиональный (полное дублирование), cубтитры: отсутствуют
Формат: HDRip-AVC, MKV, H.264, AC3
Страна: США
Режиссер: Джон МакТирнан
Жанр: боевик, триллер
Продолжительность: 02:12:07
Год выпуска: 1988

В ролях: Брюс Уиллис, Бонни Беделиа, Александр Годунов, Пол Глисон, Уильям Атертон, Харт Бочнер, Алан Рикман, Дэннис Хейден, Bruno Doyon, Андреас Вишневски, Роберт Дави, Гранд Л. Буш, Мэтт Лэндерс, Энтони Пек, Лоренцо Каччаланца, Аль Леонг

Описание: В суперсовременном небоскребе Лос-Анджелеса полицейский Джон Макклейн ведет смертельную схватку сбандой политических террористов, взявших в заложники два десятка человек, в число которых попадает и его жена. Началось все с того, что парень приехал в город к жене, оказался на рождественском приеме, а кончилось настоящей войной, в которой он, в результате неимоверных усилий, одерживает победу.



Видео: 1040 x 440 (2.35:1), 23.976 fps, AVC, х264, High@L4.1, ~ 1192 Kbps, 0.109 bit/pixel
Аудио: 48 kHz, AC3 Dolby Digital, 3/2 (L,C,R,l,r) + LFE ch, ~384 kbps


Рип: jeenart

General
Unique ID: 241305498214577889684539412842075289883 (0xB589BF9C1A0C1091A2AD1A70E0FE791B)
Complete name: F:\Мои релизы\Все релизы 10\krepkii_oreshek_[tfile.ru]\1_die_hard_[tfile.ru].mkv
Format: Matroska
File size: 1.46 GiB
Duration: 2h 12mn
Overall bit rate: 1 577 Kbps
Encoded date: UTC 2011-06-23 07:34:50
Writing application: mkvmerge v4.6.0 ('Still Crazy After All These Years') сборка от Apr1 2011 21:01:49
Writing library: libebml v1.2.0 + libmatroska v1.1.0

Video
ID: 1
Format: AVC
Format/Info: Advanced Video Codec
Format profile: High@L4.1
Format settings, CABAC: Yes
Format settings, ReFrames: 3 frames
Codec ID: V_MPEG4/ISO/AVC
Duration: 2h 12mn
Bit rate: 1 192 Kbps
Width: 1 040 pixels
Height: 440 pixels
Display aspect ratio: 2.35:1
Frame rate: 23.976 fps
Color space: YUV
Chroma subsampling: 4:2:0
Bit depth: 8 bits
Scan type: Progressive
Bits/(Pixel*Frame): 0.109
Stream size: 1.07 GiB (74%)
Writing library: x264 core 115 r1937 aa21558
Encoding settings: cabac=1 / ref=3 / deblock=1:-1:-1 / analyse=0x3:0x113 / me=dia / subme=7 / psy=1 / psy_rd=1.00:0.10 / mixed_ref=1 / me_range=16 / chroma_me=1 / trellis=1 / 8x8dct=1 / cqm=0 / deadzone=21,11 / fast_pskip=1 / chroma_qp_offset=-3 / threads=6 / sliced_threads=0 / nr=0 / decimate=1 / interlaced=0 / bluray_compat=0 / constrained_intra=0 / bframes=1 / b_pyramid=0 / b_adapt=0 / b_bias=0 / direct=0 / weightb=1 / open_gop=0 / weightp=0 / keyint=250 / keyint_min=23 / scenecut=40 / intra_refresh=0 / rc_lookahead=40 / rc=2pass / mbtree=1 / bitrate=1192 / ratetol=1.0 / qcomp=0.60 / qpmin=0 / qpmax=69 / qpstep=4 / cplxblur=20.0 / qblur=0.5 / ip_ratio=1.40 / aq=1:1.00

Audio
ID: 2
Format: AC-3
Format/Info: Audio Coding 3
Mode extension: CM (complete main)
Codec ID: A_AC3
Duration: 2h 12mn
Bit rate mode: Constant
Bit rate: 384 Kbps
Channel(s): 6 channels
Channel positions: Front: L C R, Side: L R, LFE
Sampling rate: 48.0 KHz
Bit depth: 16 bits
Compression mode: Lossy
Stream size: 363 MiB (24%)



























Крепкий орешек 2 / Die Hard 2


Перевод: Профессиональный (полное дублирование), cубтитры: отсутствуют
Формат: HDRip-AVC, MKV, H.264, AC3
Страна: США
Режиссер: Ренни Харлин
Жанр: боевик, триллер
Продолжительность: 02:03:22
Год выпуска: 1990

В ролях: Брюс Уиллис, Бонни Беделиа, Уильям Атертон, Уильям Сэдлер, Франко Неро, Джон Амос, Дэннис Франц, Арт Эванс, Фред Далтон Томпсон, Том Бауэр, Шила МакКарти, Дон Харви, Питер Нельсон, Роберт Патрик, Майкл Каннингэм, Джон Легуизамо, Том Верика, Джон Костелло, Вонди Куртис-Холл

Описание: В канун Рождества группа террористов захватила международный аэропорт итеперь удерживает тысячи путешествующих в качестве заложников. Террористы — банда отступников из первоклассно вооруженных коммандос, возглавляемых одержимым жестокостью офицером. Их цель — спасти наркобарона.
Банда подготовлена ко всевозможным случайностям, за исключением одной — встречи с Джоном Макклейном. Брюс Уиллис возвращается в роли супергероя-полицейского, который сражается не только с террористами, но и с некомпетентным шефом полиции аэропорта, тупоголовым начальником антитеррористического подразделения и страшным снежным бураном.




Видео: 1072 x 456 (2.35:1), 23.976 fps, AVC, х264, High@L4.1, ~ 1304 Kbps, 0.111 bit/pixel
Аудио: 48 kHz, AC3 Dolby Digital, 3/2 (L,C,R,l,r) + LFE ch, ~384 kbps


Рип: jeenart

General
Unique ID: 222079593279274194144559072528518542954 (0xA712F94FC43546A3BCABEACCF186F66A)
Complete name: F:\Мои релизы\Все релизы 10\krepkii_oreshek_[tfile.ru]\2_die_hard_[tfile.ru].mkv
Format: Matroska
File size: 1.46 GiB
Duration: 2h 3mn
Overall bit rate: 1 689 Kbps
Encoded date: UTC 2011-06-26 19:13:21
Writing application: mkvmerge v4.6.0 ('Still Crazy After All These Years') сборка от Apr1 2011 21:01:49
Writing library: libebml v1.2.0 + libmatroska v1.1.0

Video
ID: 1
Format: AVC
Format/Info: Advanced Video Codec
Format profile: High@L4.1
Format settings, CABAC: Yes
Format settings, ReFrames: 3 frames
Codec ID: V_MPEG4/ISO/AVC
Duration: 2h 3mn
Bit rate: 1 304 Kbps
Width: 1 072 pixels
Height: 456 pixels
Display aspect ratio: 2.35:1
Frame rate: 23.976 fps
Color space: YUV
Chroma subsampling: 4:2:0
Bit depth: 8 bits
Scan type: Progressive
Bits/(Pixel*Frame): 0.111
Stream size: 1.10 GiB (75%)
Writing library: x264 core 115 r1937 aa21558
Encoding settings: cabac=1 / ref=3 / deblock=1:-1:-1 / analyse=0x3:0x113 / me=dia / subme=7 / psy=1 / psy_rd=1.00:0.10 / mixed_ref=1 / me_range=16 / chroma_me=1 / trellis=1 / 8x8dct=1 / cqm=0 / deadzone=21,11 / fast_pskip=1 / chroma_qp_offset=-3 / threads=6 / sliced_threads=0 / nr=0 / decimate=1 / interlaced=0 / bluray_compat=0 / constrained_intra=0 / bframes=1 / b_pyramid=0 / b_adapt=0 / b_bias=0 / direct=0 / weightb=1 / open_gop=0 / weightp=0 / keyint=250 / keyint_min=23 / scenecut=40 / intra_refresh=0 / rc_lookahead=40 / rc=2pass / mbtree=1 / bitrate=1304 / ratetol=1.0 / qcomp=0.60 / qpmin=0 / qpmax=69 / qpstep=4 / cplxblur=20.0 / qblur=0.5 / ip_ratio=1.40 / aq=1:1.00

Audio
ID: 2
Format: AC-3
Format/Info: Audio Coding 3
Mode extension: CM (complete main)
Codec ID: A_AC3
Duration: 2h 3mn
Bit rate mode: Constant
Bit rate: 384 Kbps
Channel(s): 6 channels
Channel positions: Front: L C R, Side: L R, LFE
Sampling rate: 48.0 KHz
Bit depth: 16 bits
Compression mode: Lossy
Stream size: 339 MiB (23%)
























Крепкий орешек 3: Возмездие / Die Hard: With a Vengeance


Перевод: Профессиональный (многоголосый, закадровый), cубтитры: отсутствуют
Формат: HDRip-AVC, MKV, H.264, AC3
Страна: США
Режиссер: Джон МакТирнан
Жанр: боевик, триллер
Продолжительность: 02:08:31
Год выпуска: 1995

В ролях: Брюс Уиллис, Джереми Айронс, Сэмюэл Л. Джексон, Грэхэм Грин, Коллин Кэмп, Ларри Бриггман, Энтони Пек, Николас Уаймэн, Сэм Филлипс, Кевин Чамберлен, Шарон Вашингтон, Майкл Александер Джексон, Эдвин Ходж, Роберт Седжвик, Билл Крист, Энтони Томас, Гленн Херман

Описание: На улицах Нью-Йорка офицер полиции Джон Макклейн видел все, что только возможно. На этот раз для того, чтобы отомстить Макклейну, террорист Саймон, виртуозно устраивающий взрывы, заставляет героя — полицейского играть в смертельную игру. Ставка — город Нью-Йорк.
Макклейн вынужден метаться по городу, следуя телефонным указаниям Саймона, готового разнести пол — Нью-Йорка за малейшее отклонение от его требований.И в то время, как вся полиция города занята поисками террористов, преступники похищают золотой запас Национального банка США.
У Макклейна бывали неудачные деньки за годы службы в полиции, но сегодня у него, похоже, будет исключительно скверный день…




Видео: 1072 x 456 (2.35:1), 23.976 fps, AVC, х264, High@L4.1, ~ 1235 Kbps, 0.105 bit/pixel
Аудио: 48 kHz, AC3 Dolby Digital, 3/2 (L,C,R,l,r) + LFE ch, ~384 kbps


Рип: jeenart

General
Unique ID: 249611026494838229000932854473991022589 (0xBBC955C505964E84978F0CD0F87E67FD)
Complete name: F:\Мои релизы\Все релизы 10\krepkii_oreshek_[tfile.ru]\3_die_hard_[tfile.ru].mkv
Format: Matroska
File size: 1.45 GiB
Duration: 2h 8mn
Overall bit rate: 1 620 Kbps
Encoded date: UTC 2011-06-27 04:05:38
Writing application: mkvmerge v4.6.0 ('Still Crazy After All These Years') сборка от Apr1 2011 21:01:49
Writing library: libebml v1.2.0 + libmatroska v1.1.0

Video
ID: 1
Format: AVC
Format/Info: Advanced Video Codec
Format profile: High@L4.1
Format settings, CABAC: Yes
Format settings, ReFrames: 3 frames
Codec ID: V_MPEG4/ISO/AVC
Duration: 2h 8mn
Bit rate: 1 235 Kbps
Width: 1 072 pixels
Height: 456 pixels
Display aspect ratio: 2.35:1
Frame rate: 23.976 fps
Color space: YUV
Chroma subsampling: 4:2:0
Bit depth: 8 bits
Scan type: Progressive
Bits/(Pixel*Frame): 0.105
Stream size: 1.08 GiB (74%)
Writing library: x264 core 115 r1937 aa21558
Encoding settings: cabac=1 / ref=3 / deblock=1:-1:-1 / analyse=0x3:0x113 / me=dia / subme=7 / psy=1 / psy_rd=1.00:0.10 / mixed_ref=1 / me_range=16 / chroma_me=1 / trellis=1 / 8x8dct=1 / cqm=0 / deadzone=21,11 / fast_pskip=1 / chroma_qp_offset=-3 / threads=6 / sliced_threads=0 / nr=0 / decimate=1 / interlaced=0 / bluray_compat=0 / constrained_intra=0 / bframes=1 / b_pyramid=0 / b_adapt=0 / b_bias=0 / direct=0 / weightb=1 / open_gop=0 / weightp=0 / keyint=250 / keyint_min=23 / scenecut=40 / intra_refresh=0 / rc_lookahead=40 / rc=2pass / mbtree=1 / bitrate=1235 / ratetol=1.0 / qcomp=0.60 / qpmin=0 / qpmax=69 / qpstep=4 / cplxblur=20.0 / qblur=0.5 / ip_ratio=1.40 / aq=1:1.00

Audio
ID: 2
Format: AC-3
Format/Info: Audio Coding 3
Mode extension: CM (complete main)
Codec ID: A_AC3
Duration: 2h 8mn
Bit rate mode: Constant
Bit rate: 384 Kbps
Channel(s): 6 channels
Channel positions: Front: L C R, Side: L R, LFE
Sampling rate: 48.0 KHz
Bit depth: 16 bits
Compression mode: Lossy
Stream size: 353 MiB (24%)






















Крепкий орешек 4.0 / Die Hard 4.0


Перевод: Профессиональный (полное дублирование), cубтитры: отсутствуют
Формат: HDRip-AVC, MKV, H.264, AC3
Страна: США, Великобритания
Режиссер: Лен Уайзман
Жанр: боевик, триллер
Продолжительность: 02:08:42
Год выпуска: 2007

В ролях: Брюс Уиллис, Тимоти Олифэнт, Джастин Лонг, Мэгги Кью, Клифф Кертис, Джонатан Садовский, Эндрю Фридман, Кевин Смит, Йорго Константин, Кирилл Раффаелли, Крис Палермо, Мэри Элизабет Уинстэд, Санг Кенг, Желько Иванек, Кристина Чанг, Джэйк Макдоман, Розмари Ноуэр, Джералд Дауни, Аллен Мальдонадо, Jim Cantafio, Крис Эллис

Описание: Детектив Джон МакКлейн снова вдействии — на этот раз он противостоит новому поколению терроризма. События картины разворачиваются в сегодняшнем мире компьютеризации. Компьютерная инфраструктура нации, контролирующая все коммуникации, транспортные средства и власть, может быть полностью разрушена.
Вдохновитель заговора просчитал все. Что он не учел, так это МакКлейна, полицейского старой закалки, который знает несколько способов разрушить планы террористов.




Видео: 1056 x 440 (2.40:1), 23.976 fps, AVC, х264, High@L4.1, ~ 1233 Kbps, 0.111 bit/pixel
Аудио: 48 kHz, AC3 Dolby Digital, 3/2 (L,C,R,l,r) + LFE ch, ~384 kbps


Рип: jeenart

General
Unique ID: 241590489491043787294250434832555069444 (0xB5C0A2C3B91B6529AC5A2710278C5004)
Complete name: F:\Мои релизы\Все релизы 10\krepkii_oreshek_[tfile.ru]\4_die_hard_[tfile.ru].mkv
Format: Matroska
File size: 1.45 GiB
Duration: 2h 8mn
Overall bit rate: 1 618 Kbps
Encoded date: UTC 2011-06-27 07:31:47
Writing application: mkvmerge v4.6.0 ('Still Crazy After All These Years') сборка от Apr1 2011 21:01:49
Writing library: libebml v1.2.0 + libmatroska v1.1.0

Video
ID: 1
Format: AVC
Format/Info: Advanced Video Codec
Format profile: High@L4.1
Format settings, CABAC: Yes
Format settings, ReFrames: 3 frames
Codec ID: V_MPEG4/ISO/AVC
Duration: 2h 8mn
Bit rate: 1 233 Kbps
Width: 1 056 pixels
Height: 440 pixels
Display aspect ratio: 2.40:1
Frame rate: 23.976 fps
Color space: YUV
Chroma subsampling: 4:2:0
Bit depth: 8 bits
Scan type: Progressive
Bits/(Pixel*Frame): 0.111
Stream size: 1.08 GiB (74%)
Writing library: x264 core 115 r1937 aa21558
Encoding settings: cabac=1 / ref=3 / deblock=1:-1:-1 / analyse=0x3:0x113 / me=dia / subme=7 / psy=1 / psy_rd=1.00:0.10 / mixed_ref=1 / me_range=16 / chroma_me=1 / trellis=1 / 8x8dct=1 / cqm=0 / deadzone=21,11 / fast_pskip=1 / chroma_qp_offset=-3 / threads=6 / sliced_threads=0 / nr=0 / decimate=1 / interlaced=0 / bluray_compat=0 / constrained_intra=0 / bframes=1 / b_pyramid=0 / b_adapt=0 / b_bias=0 / direct=0 / weightb=1 / open_gop=0 / weightp=0 / keyint=250 / keyint_min=23 / scenecut=40 / intra_refresh=0 / rc_lookahead=40 / rc=2pass / mbtree=1 / bitrate=1233 / ratetol=1.0 / qcomp=0.60 / qpmin=0 / qpmax=69 / qpstep=4 / cplxblur=20.0 / qblur=0.5 / ip_ratio=1.40 / aq=1:1.00

Audio
ID: 2
Format: AC-3
Format/Info: Audio Coding 3
Mode extension: CM (complete main)
Codec ID: A_AC3
Duration: 2h 8mn
Bit rate mode: Constant
Bit rate: 384 Kbps
Channel(s): 6 channels
Channel positions: Front: L C R, Side: L R, LFE
Sampling rate: 48.0 KHz
Bit depth: 16 bits
Compression mode: Lossy
Stream size: 354 MiB (24%)






















Поделиться:




реклама партнёра


Вернуться к началу
 Профиль Отправить личное сообщение  
 
   Похожие торренты   Автор   Торрент   Размер 
В этой теме нет новых непрочитанных сообщений. Крепкий орешек: Хороший день, чтобы умереть / A Good Day to Die Hard (Джон Мур / John Moore) [2013, США, боевик, триллер, криминал, HQRip-AVC] [Расширенная версия / Extended Сut] Dub

PriZraK

53 | 1

1.43 ГБ

В этой теме нет новых непрочитанных сообщений. Крепкий орешек 3: Возмездие / Die Hard: With a Vengeance [Боевик, триллер, драма, криминал, 1995] BDRip 1080p, Mvo+Sub

salma3

67 | 4

7.75 ГБ

В этой теме нет новых непрочитанных сообщений. Герой и Ужас / Hero and the Terror [триллер, боевик, драма, криминал, 1988] HDRip, Mvo+avo

salma3

47 | 19

1.85 ГБ

В этой теме нет новых непрочитанных сообщений. Джон Доу / John Doe: Vigilante (Келли Долен) [боевик, триллер, 2014] HDRip, dvo

Dracon

4536 | 118

1.36 ГБ

В этой теме нет новых непрочитанных сообщений. Кровавая месть / In the Blood (Джон Стокуэлл) [2014, триллер, боевик, криминал, HDRip | Лицензия] Dub

Nickolas3435

623 | 25

2.05 ГБ

В этой теме нет новых непрочитанных сообщений. Кровавая месть / In the Blood (Джон Стокуэлл) [2014, триллер, боевик, криминал, HDRip | Лицензия] Dub

Nickolas3435

902 | 37

1.37 ГБ

В этой теме нет новых непрочитанных сообщений. Выхода нет / No Escape (Джон Эрик Даудл) [боевик, Триллер, 2015] HDRip, Dub [Звук с IPTV]

Dracon

31 | 1

1.46 ГБ


Начать новую тему Ответить на тему  [ 1 сообщение ] 




Для Мосгорсуда, Роскомнадзора и рекламодателей:: mosgorsud-torrent[собачка]yandex.ru