Торрент файл
скачать торрент магнет ссылка Добавлен: 10 янв 2012, 19:01
Размер: 10.51 ГБ
Сидеров: 87
Личеров: 29
Автор

СообщениеДобавлено: 10 янв 2012, 19:01 

Не в сети
Супермодератор
Аватара пользователя
Дата регистрации:
11 апр 2010, 18:10
Спасибо: 5801 / 7
Сообщения: 56779
Люди Икс / X-Men



Перевод: Профессиональный (полное дублирование),субтитры: отсутствуют
Формат: HDRip-AVC, MKV, H.264, AC3
Страна: США
Жанр: Фантастика, боевик, триллер, фэнтези
Продолжительность: 01:44:00
Режиссер: Брайан Сингер / Bryan Singer
Год выпуска: 2000

В ролях: Хью Джекман, Патрик Стюарт, Иэн МакКеллен, Фамке Янссен, Джеймс Марсден, Холли Берри, Анна Пакуин, Тайлер Мэйн, Рэй Парк, Ребекка Ромин, Брюс Дэвисон, Мэттью Шарп, Кеннет МакГрегор

Описание:Они — дети атомного века, сверх люди, новое звено в цепи эволюции. Каждый из них был рождён в результате уникальной генетической мутации, наделившей их с детства необыкновенными способностями. В мире, где царят ненависть и предрассудки, мутанты — причуда науки и каприз природы. Этих изгоев ненавидят и боятся, те кто не способен понять и принять их индивидуальность. И всё же, несмотря на невежество и агрессивность масс, тысячи мутантов выживают. Под руководством профессора Чарльза Ксавьера (Патрик Стюарт), телепата с мировым именем, одарённые ученики научились контролировать и управлять своими удивительными способностями в интересах человечества. Но не все мутанты разделяют взгляды профессора: могущественный мутант Магнето, которому подвластны все металлы, собрал команду единомышленников. Он не верит, что люди и мутанты когда-либо смогут мирно сосуществовать. Они разработали план, чтобы осуществить захват власти над миром, и тогда, только ученики профессора Ксавьера смогут защитить этот мир…

________

Видео: 1280x 544 (2:35:1), 23,976 кадр/сек, AVC (х264), High@L4.0, ~2500 Kbps, 0.150 bit/pixel
Аудио: 48 kHz, AC3 Dolby Digital, 3/2 (L,C,R,l,r) + LFE ch, ~384 kbps


Автор РИПа:ddimmon22
Общее
Уникальный идентификатор: 227179450498978526784362764578010416377 (0xAAE92BAF7DE54954AE0AA2752267C4F9)
Полное имя: K:\РИПЫ\Люди Икс - X-Men\x-men_[tfile.ru].mkv
Формат: Matroska
Версия формата: Version 2
Размер файла: 2,10 Гбайт
Продолжительность: 1 ч. 44 м.
Общий поток: 2884 Кбит/сек
Дата кодирования: UTC 2011-09-17 17:53:30
Программа кодирования: mkvmerge v4.9.1 ('Ich will') сборка от Aug 10 2011 09:31:20
Библиотека кодирования: libebml v1.2.1 + libmatroska v1.2.0

Видео
Идентификатор: 1
Формат: AVC
Формат/Информация: Advanced Video Codec
Профиль формата: High@L4.0
Параметр CABAC формата: Да
Параметр ReFrames формата: 8 кадров
Идентификатор кодека: V_MPEG4/ISO/AVC
Продолжительность: 1 ч. 44 м.
Битрейт: 2500 Кбит/сек
Ширина: 1280 пикс.
Высота: 544 пикс.
Соотношение сторон: 2,35:1
Частота кадров: 23,976 кадр/сек
Цветовое пространство: YUV
Подвыборка цветности: 4:2:0
Битовая глубина: 8 бит
Тип развёртки: Прогрессивная
Бит/(Пиксели*Кадры): 0.150
Размер потока: 1,78 Гбайт (85%)
Библиотека кодирования: x264 core 116 r2074 2641b9e
Настройки программы: cabac=1 / ref=8 / deblock=1:-1:-1 / analyse=0x3:0x133 / me=umh / subme=7 / psy=1 / psy_rd=1.00:0.10 / mixed_ref=1 / me_range=16 / chroma_me=1 / trellis=2 / 8x8dct=1 / cqm=0 / deadzone=21,11 / fast_pskip=0 / chroma_qp_offset=-3 / threads=6 / sliced_threads=0 / nr=0 / decimate=1 / interlaced=0 / bluray_compat=0 / constrained_intra=0 / bframes=3 / b_pyramid=2 / b_adapt=2 / b_bias=0 / direct=3 / weightb=1 / open_gop=0 / weightp=2 / keyint=250 / keyint_min=23 / scenecut=40 / intra_refresh=0 / rc_lookahead=50 / rc=2pass / mbtree=1 / bitrate=2500 / ratetol=1.0 / qcomp=0.60 / qpmin=0 / qpmax=69 / qpstep=4 / cplxblur=20.0 / qblur=0.5 / ip_ratio=1.40 / aq=1:1.00

Аудио
Идентификатор: 2
Формат: AC-3
Формат/Информация: Audio Coding 3
Расширение режима: CM (complete main)
Идентификатор кодека: A_AC3
Продолжительность: 1 ч. 44 м.
Вид битрейта: Постоянный
Битрейт: 384 Кбит/сек
Каналы: 6 каналов
Расположение каналов: Front: L C R, Side: L R, LFE
Частота: 48,0 КГц
Битовая глубина: 16 бит
Метод сжатия: С потерями
Размер потока: 287 Мбайт (13%)











Люди Икс 2 / X-Men 2



Перевод: Профессиональный (полное дублирование),субтитры: отсутствуют
Формат: HDRip-AVC, MKV, H.264, AC3
Страна: США, Канада
Жанр: Фантастика, боевик, триллер, фэнтези
Продолжительность: 02:13:00
Режиссер: Брайан Сингер / Bryan Singer
Год выпуска: 2003

В ролях: Хью Джекман, Патрик Стюарт, Иэн МакКеллен, Холли Берри, Фамке Янссен, Джеймс Марсден, Анна Пакуин, Ребекка Ромин, Брайан Кокс, Алан Камминг

Описание:Мутанты продолжают борьбу против общества, которое страшит их, и которому они не доверяют. Их положение становится еще более отчаянным, когда они подвергаются мощной атаке неизвестного противника, обладающего экстраординарными способностями.

Внезапное нападение снова становится причиной политического и общественного резонанса по поводу введения повсеместной регистрации мутантов и причиной образования движения против мутантов, возглавляемого Уильямом Страйкером, бывшим военным, который, по слухам, проводил опыты над мутантами.

Работа Страйкера была каким-то образом связана с таинственным прошлым Логана, которое он не помнит. Как только Росомаха начинает пытаться разгадать свое прошлое, Страйкер активирует свою программу, направленную против мутантов, т. е. организует штурм на дом профессора Ксавье.

Сбежавший из пластиковой тюрьмы Магнето предлагает Людям Икс объединиться и сражаться вместе против их общего устрашающего врага Страйкера. На этот раз Люди ИКС сталкиваются с самой серьезной задачей, которая когда-либо стояла перед ними: сейчас в их руках судьбы не только всех мутантов, но и всего человечества.


________

Видео: 1248x 520 (2:40:1), 23,976 кадр/сек, AVC (х264), High@L4.0, ~1864 Kbps, 0.120 bit/pixel
Аудио: 48 kHz, AC3 Dolby Digital, 3/2 (L,C,R,l,r) + LFE ch, ~384 kbps


Автор РИПа:ddimmon22
Общее
Уникальный идентификатор: 181680140905203889731787553902890567984 (0x88AE5286A47EEEF2880957F5066FC930)
Полное имя: K:\РИПЫ\Люди Икс - X-Men\x_men_2_[tfile.ru].mkv
Формат: Matroska
Версия формата: Version 2
Размер файла: 2,10 Гбайт
Продолжительность: 2 ч. 13 м.
Общий поток: 2249 Кбит/сек
Дата кодирования: UTC 2011-09-17 22:35:46
Программа кодирования: mkvmerge v4.9.1 ('Ich will') сборка от Aug 10 2011 09:31:20
Библиотека кодирования: libebml v1.2.1 + libmatroska v1.2.0

Видео
Идентификатор: 1
Формат: AVC
Формат/Информация: Advanced Video Codec
Профиль формата: High@L4.0
Параметр CABAC формата: Да
Параметр ReFrames формата: 8 кадров
Идентификатор кодека: V_MPEG4/ISO/AVC
Продолжительность: 2 ч. 13 м.
Битрейт: 1864 Кбит/сек
Ширина: 1248 пикс.
Высота: 520 пикс.
Соотношение сторон: 2,40:1
Частота кадров: 23,976 кадр/сек
Цветовое пространство: YUV
Подвыборка цветности: 4:2:0
Битовая глубина: 8 бит
Тип развёртки: Прогрессивная
Бит/(Пиксели*Кадры): 0.120
Размер потока: 1,70 Гбайт (81%)
Библиотека кодирования: x264 core 116 r2074 2641b9e
Настройки программы: cabac=1 / ref=8 / deblock=1:-1:-1 / analyse=0x3:0x133 / me=umh / subme=7 / psy=1 / psy_rd=1.00:0.10 / mixed_ref=1 / me_range=16 / chroma_me=1 / trellis=2 / 8x8dct=1 / cqm=0 / deadzone=21,11 / fast_pskip=0 / chroma_qp_offset=-3 / threads=6 / sliced_threads=0 / nr=0 / decimate=1 / interlaced=0 / bluray_compat=0 / constrained_intra=0 / bframes=3 / b_pyramid=2 / b_adapt=2 / b_bias=0 / direct=3 / weightb=1 / open_gop=0 / weightp=2 / keyint=250 / keyint_min=23 / scenecut=40 / intra_refresh=0 / rc_lookahead=50 / rc=2pass / mbtree=1 / bitrate=1864 / ratetol=1.0 / qcomp=0.60 / qpmin=0 / qpmax=69 / qpstep=4 / cplxblur=20.0 / qblur=0.5 / ip_ratio=1.40 / aq=1:1.00

Аудио
Идентификатор: 2
Формат: AC-3
Формат/Информация: Audio Coding 3
Расширение режима: CM (complete main)
Идентификатор кодека: A_AC3
Продолжительность: 2 ч. 13 м.
Вид битрейта: Постоянный
Битрейт: 384 Кбит/сек
Каналы: 6 каналов
Расположение каналов: Front: L C R, Side: L R, LFE
Частота: 48,0 КГц
Битовая глубина: 16 бит
Метод сжатия: С потерями
Размер потока: 367 Мбайт (17%)











Люди Икс: Последняя битва / X-Men: The Last Stand



Перевод: Профессиональный (полное дублирование),субтитры: отсутствуют
Формат: HDRip-AVC, MKV, H.264, AC3
Страна: США, Канада, Великобритания
Жанр: Фантастика, боевик, триллер, фэнтези
Продолжительность: 01:44:00
Режиссер: Бретт Рэтнер / Brett Ratner
Год выпуска: 2006

В ролях: Хью Джекман, Холли Берри, Иэн МакКеллен, Патрик Стюарт, Фамке Янссен, Анна Пакуин, Келси Грэммер, Джеймс Марсден, Ребекка Ромин , Шон Эшмор, Винни Джонс, Эллен Пейдж

Описание:Людям Икс, во главе с профессором Чарльзом Ксавьером, приходится вступить в битву с самой эволюцией в лице их воскресшего товарища по команде… Джин Грэй, возрожденная в облике Темного Феникса, представляет опасность не только для самой себя, но и для мутантов и для всей человеческой расы.

А когда наконец найдено возможное лекарство — то, что может предотвратить генетические мутации — наступает время решающей битвы между Людьми Икс, Братством Магнето и человечеством.


________

Видео: 1248x 520 (2:40:1), 23,976 кадр/сек, AVC (х264), High@L4.0, ~2506 Kbps, 0.161 bit/pixel
Аудио: 48 kHz, AC3 Dolby Digital, 3/2 (L,C,R,l,r) + LFE ch, ~384 kbps


Автор РИПа:ddimmon22
Общее
Уникальный идентификатор: 219903368316227379428966672821694718798 (0xA56FD9230EB3058FAC3D3DB1DC33634E)
Полное имя: K:\РИПЫ\x_men\x-men_the_last_stand_[tfile.ru].mkv
Формат: Matroska
Версия формата: Version 2
Размер файла: 2,10 Гбайт
Продолжительность: 1 ч. 44 м.
Общий поток: 2892 Кбит/сек
Дата кодирования: UTC 2011-09-18 14:00:33
Программа кодирования: mkvmerge v4.9.1 ('Ich will') зібрано Aug 10 2011 09:31:20
Библиотека кодирования: libebml v1.2.1 + libmatroska v1.2.0

Видео
Идентификатор: 1
Формат: AVC
Формат/Информация: Advanced Video Codec
Профиль формата: High@L4.0
Параметр CABAC формата: Да
Параметр ReFrames формата: 8 кадров
Идентификатор кодека: V_MPEG4/ISO/AVC
Продолжительность: 1 ч. 44 м.
Битрейт: 2506 Кбит/сек
Ширина: 1248 пикс.
Высота: 520 пикс.
Соотношение сторон: 2,40:1
Частота кадров: 23,976 кадр/сек
Цветовое пространство: YUV
Подвыборка цветности: 4:2:0
Битовая глубина: 8 бит
Тип развёртки: Прогрессивная
Бит/(Пиксели*Кадры): 0.161
Размер потока: 1,78 Гбайт (85%)
Библиотека кодирования: x264 core 116 r2074 2641b9e
Настройки программы: cabac=1 / ref=8 / deblock=1:-1:-1 / analyse=0x3:0x133 / me=umh / subme=7 / psy=1 / psy_rd=1.00:0.10 / mixed_ref=1 / me_range=16 / chroma_me=1 / trellis=2 / 8x8dct=1 / cqm=0 / deadzone=21,11 / fast_pskip=0 / chroma_qp_offset=-3 / threads=3 / sliced_threads=0 / nr=0 / decimate=1 / interlaced=0 / bluray_compat=0 / constrained_intra=0 / bframes=3 / b_pyramid=2 / b_adapt=2 / b_bias=0 / direct=3 / weightb=1 / open_gop=0 / weightp=2 / keyint=250 / keyint_min=23 / scenecut=40 / intra_refresh=0 / rc_lookahead=50 / rc=2pass / mbtree=1 / bitrate=2506 / ratetol=1.0 / qcomp=0.60 / qpmin=0 / qpmax=69 / qpstep=4 / cplxblur=20.0 / qblur=0.5 / ip_ratio=1.40 / aq=1:1.00

Аудио
Идентификатор: 2
Формат: AC-3
Формат/Информация: Audio Coding 3
Расширение режима: CM (complete main)
Идентификатор кодека: A_AC3
Продолжительность: 1 ч. 44 м.
Вид битрейта: Постоянный
Битрейт: 384 Кбит/сек
Каналы: 6 каналов
Расположение каналов: Front: L C R, Side: L R, LFE
Частота: 48,0 КГц
Битовая глубина: 16 бит
Метод сжатия: С потерями
Размер потока: 286 Мбайт (13%)












Люди Икс: Начало. Росомаха / X-Men Origins: Wolverine



Перевод: Профессиональный (полное дублирование),субтитры: отсутствуют
Формат: HDRip-AVC, MKV, H.264, AC3
Страна: США
Жанр: Фантастика, боевик, триллер, фэнтези
Продолжительность: 01:47:00
Режиссер: Гэвин Худ / Gavin Hood
Год выпуска: 2009

В ролях: Хью Джекман, Лив Шрайбер, Дэнни Хьюстон, Уилл Ай Эм, Линн Коллинз, Кевин Дюран, Доминик Монахэн, Тейлор Китч, Дэниэл Хенни, Райан Рейнольдс, Скотт Эдкинс, Тим Пакок, Джулия Блейк, Макс Каллен, Трой Сайван, Майкл - Джеймс Олсен, Питер О`Брайэн, Аарон Джеффри, Элис Паркинсон, Филип А. Паттерсон, Энтони Ги

Описание:Фильм рассказывает о неистовом и романтичном прошлом Росомахи, его сложных отношениях с Виктором Кридом и о зловещей программе Оружие Х. При этом Росомаха встречается со многими мутантами, уже знакомыми и новыми, и узнает несколько легенд о мире Людей Икс.

________

Видео: 1280x 544 (2:35:1), 23,976 кадр/сек, AVC (х264), High@L4.0, ~2418 Kbps, 0.145 bit/pixel
Аудио: 48 kHz, AC3 Dolby Digital, 3/2 (L,C,R,l,r) + LFE ch, ~384 kbps


Автор РИПа:ddimmon22
Общее
Уникальный идентификатор: 185715430095354612698183790359759534981 (0x8BB77DA4C6C86B5C9FD0556299C3BB85)
Полное имя: K:\РИПЫ\Люди Икс - X-Men\x-men_origins_wolverine_[tfile.ru].mkv
Формат: Matroska
Версия формата: Version 2
Размер файла: 2,10 Гбайт
Продолжительность: 1 ч. 47 м.
Общий поток: 2803 Кбит/сек
Дата кодирования: UTC 2011-09-18 02:46:28
Программа кодирования: mkvmerge v4.9.1 ('Ich will') сборка от Aug 10 2011 09:31:20
Библиотека кодирования: libebml v1.2.1 + libmatroska v1.2.0

Видео
Идентификатор: 1
Формат: AVC
Формат/Информация: Advanced Video Codec
Профиль формата: High@L4.0
Параметр CABAC формата: Да
Параметр ReFrames формата: 8 кадров
Идентификатор кодека: V_MPEG4/ISO/AVC
Продолжительность: 1 ч. 47 м.
Битрейт: 2418 Кбит/сек
Ширина: 1280 пикс.
Высота: 544 пикс.
Соотношение сторон: 2,35:1
Частота кадров: 23,976 кадр/сек
Цветовое пространство: YUV
Подвыборка цветности: 4:2:0
Битовая глубина: 8 бит
Тип развёртки: Прогрессивная
Бит/(Пиксели*Кадры): 0.145
Размер потока: 1,77 Гбайт (84%)
Библиотека кодирования: x264 core 116 r2074 2641b9e
Настройки программы: cabac=1 / ref=8 / deblock=1:-1:-1 / analyse=0x3:0x133 / me=umh / subme=7 / psy=1 / psy_rd=1.00:0.10 / mixed_ref=1 / me_range=16 / chroma_me=1 / trellis=2 / 8x8dct=1 / cqm=0 / deadzone=21,11 / fast_pskip=0 / chroma_qp_offset=-3 / threads=6 / sliced_threads=0 / nr=0 / decimate=1 / interlaced=0 / bluray_compat=0 / constrained_intra=0 / bframes=3 / b_pyramid=2 / b_adapt=2 / b_bias=0 / direct=3 / weightb=1 / open_gop=0 / weightp=2 / keyint=250 / keyint_min=23 / scenecut=40 / intra_refresh=0 / rc_lookahead=50 / rc=2pass / mbtree=1 / bitrate=2418 / ratetol=1.0 / qcomp=0.60 / qpmin=0 / qpmax=69 / qpstep=4 / cplxblur=20.0 / qblur=0.5 / ip_ratio=1.40 / aq=1:1.00

Аудио
Идентификатор: 2
Формат: AC-3
Формат/Информация: Audio Coding 3
Расширение режима: CM (complete main)
Идентификатор кодека: A_AC3
Продолжительность: 1 ч. 47 м.
Вид битрейта: Постоянный
Битрейт: 384 Кбит/сек
Каналы: 6 каналов
Расположение каналов: Front: L C R, Side: L R, LFE
Частота: 48,0 КГц
Битовая глубина: 16 бит
Метод сжатия: С потерями
Размер потока: 295 Мбайт (14%)











Люди Икс: Первый класс / X-Men: First Class



Перевод: Профессиональный (полное дублирование),субтитры: отсутствуют
Формат: HDRip-AVC, MKV, H.264, AC3
Страна: США
Жанр: Фантастика, боевик, триллер, фэнтези
Продолжительность: 02:11:00
Режиссер: Мэттью Вон / Matthew Vaughn
Год выпуска: 2011

В ролях: Джеймс МакЭвой, Майкл Фассбендер, Кевин Бейкон, Роуз Бирн, Николас Холт, Лукас Тилл, Дженнифер Лоуренс, Калеб Лэндри Джонс, Зои Кравиц, Дженьюэри Джонс

Описание:Фильм нам расскажет о том, как сформировались профессор Ксавье и Магнито, о процессе основания школы Ксавье для детей-мутантов и, наконец, о том, что же произошло между двумя закадычными друзьями и почему они расстались.

________

Видео: 1280x 544 (2:35:1), 23,976 кадр/сек, AVC (х264),High@L4.0, ~1900 Kbps,0.114 bit/pixel
Аудио: 48 kHz, AC3 Dolby Digital, 3/2 (L,C,R,l,r) + LFE ch, ~384 kbps


Автор РИПа:ddimmon22
Общее
Уникальный идентификатор: 172069410595300023372214858013607711171 (0x81735CF00C82B426A4C713B43BEBD1C3)
Полное имя: K:\РИПЫ\Люди Икс - X-Men\x-men_first_class_[tfile.ru].mkv
Формат: Matroska
Версия формата: Version 2
Размер файла: 2,10 Гбайт
Продолжительность: 2 ч. 11 м.
Общий поток: 2285 Кбит/сек
Дата кодирования: UTC 2011-09-18 11:34:04
Программа кодирования: mkvmerge v4.9.1 ('Ich will') сборка от Aug 10 2011 09:31:20
Библиотека кодирования: libebml v1.2.1 + libmatroska v1.2.0

Видео
Идентификатор: 1
Формат: AVC
Формат/Информация: Advanced Video Codec
Профиль формата: High@L4.0
Параметр CABAC формата: Да
Параметр ReFrames формата: 8 кадров
Идентификатор кодека: V_MPEG4/ISO/AVC
Продолжительность: 2 ч. 11 м.
Битрейт: 1900 Кбит/сек
Ширина: 1280 пикс.
Высота: 544 пикс.
Соотношение сторон: 2,35:1
Частота кадров: 23,976 кадр/сек
Цветовое пространство: YUV
Подвыборка цветности: 4:2:0
Битовая глубина: 8 бит
Тип развёртки: Прогрессивная
Бит/(Пиксели*Кадры): 0.114
Размер потока: 1,71 Гбайт (81%)
Библиотека кодирования: x264 core 116 r2074 2641b9e
Настройки программы: cabac=1 / ref=8 / deblock=1:-1:-1 / analyse=0x3:0x133 / me=umh / subme=7 / psy=1 / psy_rd=1.00:0.10 / mixed_ref=1 / me_range=16 / chroma_me=1 / trellis=2 / 8x8dct=1 / cqm=0 / deadzone=21,11 / fast_pskip=0 / chroma_qp_offset=-3 / threads=6 / sliced_threads=0 / nr=0 / decimate=1 / interlaced=0 / bluray_compat=0 / constrained_intra=0 / bframes=3 / b_pyramid=2 / b_adapt=2 / b_bias=0 / direct=3 / weightb=1 / open_gop=0 / weightp=2 / keyint=250 / keyint_min=23 / scenecut=40 / intra_refresh=0 / rc_lookahead=50 / rc=2pass / mbtree=1 / bitrate=1900 / ratetol=1.0 / qcomp=0.60 / qpmin=0 / qpmax=69 / qpstep=4 / cplxblur=20.0 / qblur=0.5 / ip_ratio=1.40 / aq=1:1.00

Аудио
Идентификатор: 2
Формат: AC-3
Формат/Информация: Audio Coding 3
Расширение режима: CM (complete main)
Идентификатор кодека: A_AC3
Продолжительность: 2 ч. 11 м.
Вид битрейта: Постоянный
Битрейт: 384 Кбит/сек
Каналы: 6 каналов
Расположение каналов: Front: L C R, Side: L R, LFE
Частота: 48,0 КГц
Битовая глубина: 16 бит
Метод сжатия: С потерями
Размер потока: 362 Мбайт (17%)










Поделиться:




реклама партнёра


Вернуться к началу
 Профиль Отправить личное сообщение  
 
   Похожие торренты   Автор   Торрент   Размер 
В этой теме нет новых непрочитанных сообщений. Люди Икс: Дни минувшего будущего / X-Men: Days of Future Past (Брайан Сингер) [фантастика, фэнтези, боевик, приключения, 2014] DVD5, Dub+Sub [сжатый]

Dracon

114 | 10

4.34 ГБ

В этой теме нет новых непрочитанных сообщений. Таинственные люди / Mystery Men [фантастика, фэнтези, боевик, комедия, 1999] HDRip, Dvo

salma3

23 | 1

743.67 МБ

В этой теме нет новых непрочитанных сообщений. Люди Икс: Дни минувшего будущего / X-Men: Days of Future Past [фантастика, фэнтези, боевик, приключения, 2014] HDRip-AVC, Dub+Sub [Лицензия]

Dracon

181 | 4

2.04 ГБ

В этой теме нет новых непрочитанных сообщений. Добро пожаловать в рай  / Vice (Брайан А Миллер) [Фантастика, боевик, триллер, приключения, 2015] HDRip, dvo

Dracon

4 | 2

1.37 ГБ

В этой теме нет новых непрочитанных сообщений. Добро пожаловать в рай / Vice (Брайан А Миллер) [Фантастика, боевик, триллер, приключения, 2015] HDRip, Dub [iTunes]

Dracon

156 | 6

1.42 ГБ

В этой теме нет новых непрочитанных сообщений. Дракула 2000 / Dracula 2000 [ужасы, фэнтези, боевик, триллер, 2000] BDRip 720p, Dub+Sub

salma3

101 | 8

3.83 ГБ

В этой теме нет новых непрочитанных сообщений. Дракула 2000 / Dracula 2000 [ужасы, фэнтези, боевик, триллер, 2000] BDRip 1080p, Dub+Sub

salma3

54 | 14

9.81 ГБ


Начать новую тему Ответить на тему  [ 1 сообщение ] 




Для Мосгорсуда, Роскомнадзора и рекламодателей:: mosgorsud-torrent[собачка]yandex.ru