Торрент файл
скачать торрент магнет ссылка Добавлен: 10 янв 2012, 19:00
Размер: 4.21 ГБ
Сидеров: 108
Личеров: 19
Автор

СообщениеДобавлено: 10 янв 2012, 19:00 

Не в сети
Супермодератор
Аватара пользователя
Дата регистрации:
11 апр 2010, 18:10
Спасибо: 5802 / 7
Сообщения: 56779
Лара Крофт: Расхитительница гробниц / Lara Croft: Tomb Raider



Перевод: Профессиональный (полное дублирование),субтитры: отсутствуют
Формат: HDRip-AVC, MKV, H.264, AC3
Страна: США, Германия, Япония, Великобритания
Жанр: фэнтези, боевик, триллер, приключения
Продолжительность: 01:40:00
Режиссер: Саймон Уэст / Simon West
Год выпуска: 2001

В ролях: Анджелина Джоли, Джон Войт, Айэйн Глен, Ноа Тейлор, Дэниэл Крэйг, Ричард Джонсон, Крис Барри, Джулиан Райнд-Татт, Лесли Филлипс, Роберт Филлипс

Описание:Она — само совершенство! На нашей планете нет женщины, которая могла бы сравниться с ней. Она — божественно прекрасна, невероятно умна и потрясающе отважна. Она владеет всеми видами рукопашного боя, изумительно стреляет из любых видов оружия и способна выжить в самых экстремальных условиях.

Эта девушка — дочь лорда. Ее имя — леди Лара Крофт. И пусть трепещут злодеи, которые попытаются встать у нее на пути…


________

Видео: 1280x 536 (2:40:1), 23,976 кадр/сек, AVC (х264),High@L4.0, ~ 2609 Kbps, 0.159 bit/pixel
Аудио: 48 kHz, AC3 Dolby Digital, 3/2 (L,C,R,l,r) + LFE ch, ~384 kbps


Автор РИПа:ddimmon22
Общее
Уникальный идентификатор: 241261962100583408196026402030370177019 (0xB5815D1D16C9EE5B85F603E378203FFB)
Полное имя: K:\РИПЫ\lara_croft_[tfile.ru]\lara_croft_tomb_raider_[tfile.ru].mkv
Формат: Matroska
Версия формата: Version 2
Размер файла: 2,10 Гбайт
Продолжительность: 1 ч. 40 м.
Общий поток: 2994 Кбит/сек
Дата кодирования: UTC 2011-10-01 22:17:22
Программа кодирования: mkvmerge v4.9.1 ('Ich will') сборка от Aug 10 2011 09:31:20
Библиотека кодирования: libebml v1.2.1 + libmatroska v1.2.0

Видео
Идентификатор: 1
Формат: AVC
Формат/Информация: Advanced Video Codec
Профиль формата: High@L4.0
Параметр CABAC формата: Да
Параметр ReFrames формата: 8 кадров
Идентификатор кодека: V_MPEG4/ISO/AVC
Продолжительность: 1 ч. 40 м.
Битрейт: 2609 Кбит/сек
Ширина: 1280 пикс.
Высота: 536 пикс.
Соотношение сторон: 2,40:1
Частота кадров: 23,976 кадр/сек
Цветовое пространство: YUV
Подвыборка цветности: 4:2:0
Битовая глубина: 8 бит
Тип развёртки: Прогрессивная
Бит/(Пиксели*Кадры): 0.159
Размер потока: 1,79 Гбайт (85%)
Библиотека кодирования: x264 core 116 r2074 2641b9e
Настройки программы: cabac=1 / ref=8 / deblock=1:-1:-1 / analyse=0x3:0x133 / me=umh / subme=7 / psy=1 / psy_rd=1.00:0.10 / mixed_ref=1 / me_range=16 / chroma_me=1 / trellis=2 / 8x8dct=1 / cqm=0 / deadzone=21,11 / fast_pskip=0 / chroma_qp_offset=-3 / threads=6 / sliced_threads=0 / nr=0 / decimate=1 / interlaced=0 / bluray_compat=0 / constrained_intra=0 / bframes=3 / b_pyramid=2 / b_adapt=2 / b_bias=0 / direct=3 / weightb=1 / open_gop=0 / weightp=2 / keyint=250 / keyint_min=23 / scenecut=40 / intra_refresh=0 / rc_lookahead=50 / rc=2pass / mbtree=1 / bitrate=2609 / ratetol=1.0 / qcomp=0.60 / qpmin=0 / qpmax=69 / qpstep=4 / cplxblur=20.0 / qblur=0.5 / ip_ratio=1.40 / aq=1:1.00

Аудио
Идентификатор: 2
Формат: AC-3
Формат/Информация: Audio Coding 3
Расширение режима: CM (complete main)
Идентификатор кодека: A_AC3
Продолжительность: 1 ч. 40 м.
Вид битрейта: Постоянный
Битрейт: 384 Кбит/сек
Каналы: 6 каналов
Расположение каналов: Front: L C R, Side: L R, LFE
Частота: 48,0 КГц
Битовая глубина: 16 бит
Метод сжатия: С потерями
Размер потока: 276 Мбайт (13%)













Лара Крофт: Расхитительница гробниц 2 - Колыбель жизни / Lara Croft Tomb Raider: The Cradle of Life



Перевод: Профессиональный (полное дублирование),субтитры: отсутствуют
Формат: HDRip-AVC, MKV, H.264, AC3
Страна: США, Германия, Япония, Великобритания
Жанр: фэнтези, боевик, триллер, приключения
Продолжительность: 01:57:00
Режиссер: Ян де Бонт / Jan de Bont
Год выпуска: 2003

В ролях: Анджелина Джоли, Джерард Батлер, Киаран Хиндс, Крис Барри, Ноа Тейлор, Джимон Хунсу, Тиль Швайгер, Саймон Ям, Теренс Йин, Даниэль Кальтаджироне

Описание:Во второй серии приключений прекрасной расхитительницы гробниц Лары Крофт география действия становится ещё обширней и экзотичней. Ларе предстоит побывать в Греции, Кении, Танзании, Гонконге и Китае, и, разумеется, не для того, чтобы оценить местные красоты.

Она будет противостоять злодею-интеллектуалу Чену Ло, возглавляющему китайский преступный синдикат. Ло, искусный бизнесмен и хладнокровный убийца, замыслил украсть мифический Ящик Пандоры из ушедшего под воду храма, чтобы использовать его как оружие Судного дня…


________

Видео: 1280x 544 (2:35:1), 23,976 кадр/сек, AVC (х264),High@L4.0, ~ 2181Kbps, 0.131 bit/pixel
Аудио: 48 kHz, AC3 Dolby Digital, 3/2 (L,C,R,l,r) + LFE ch, ~384 kbps


Автор РИПа:ddimmon22
Общее
Уникальный идентификатор: 236639827947874154692072075533601477439 (0xB2072C4E2E4D9F079027F001E9E0133F)
Полное имя: K:\РИПЫ\lara_croft_[tfile.ru]\lara_croft_tomb_raider_the_cradle_of_Life_[tfile.ru].mkv
Формат: Matroska
Версия формата: Version 2
Размер файла: 2,10 Гбайт
Продолжительность: 1 ч. 57 м.
Общий поток: 2566 Кбит/сек
Дата кодирования: UTC 2011-10-02 02:20:31
Программа кодирования: mkvmerge v4.9.1 ('Ich will') сборка от Aug 10 2011 09:31:20
Библиотека кодирования: libebml v1.2.1 + libmatroska v1.2.0

Видео
Идентификатор: 1
Формат: AVC
Формат/Информация: Advanced Video Codec
Профиль формата: High@L4.0
Параметр CABAC формата: Да
Параметр ReFrames формата: 8 кадров
Идентификатор кодека: V_MPEG4/ISO/AVC
Продолжительность: 1 ч. 57 м.
Битрейт: 2181 Кбит/сек
Ширина: 1280 пикс.
Высота: 544 пикс.
Соотношение сторон: 2,35:1
Частота кадров: 23,976 кадр/сек
Цветовое пространство: YUV
Подвыборка цветности: 4:2:0
Битовая глубина: 8 бит
Тип развёртки: Прогрессивная
Бит/(Пиксели*Кадры): 0.131
Размер потока: 1,75 Гбайт (83%)
Библиотека кодирования: x264 core 116 r2074 2641b9e
Настройки программы: cabac=1 / ref=8 / deblock=1:-1:-1 / analyse=0x3:0x133 / me=umh / subme=7 / psy=1 / psy_rd=1.00:0.10 / mixed_ref=1 / me_range=16 / chroma_me=1 / trellis=2 / 8x8dct=1 / cqm=0 / deadzone=21,11 / fast_pskip=0 / chroma_qp_offset=-3 / threads=6 / sliced_threads=0 / nr=0 / decimate=1 / interlaced=0 / bluray_compat=0 / constrained_intra=0 / bframes=3 / b_pyramid=2 / b_adapt=2 / b_bias=0 / direct=3 / weightb=1 / open_gop=0 / weightp=2 / keyint=250 / keyint_min=23 / scenecut=40 / intra_refresh=0 / rc_lookahead=50 / rc=2pass / mbtree=1 / bitrate=2181 / ratetol=1.0 / qcomp=0.60 / qpmin=0 / qpmax=69 / qpstep=4 / cplxblur=20.0 / qblur=0.5 / ip_ratio=1.40 / aq=1:1.00

Аудио
Идентификатор: 2
Формат: AC-3
Формат/Информация: Audio Coding 3
Расширение режима: CM (complete main)
Идентификатор кодека: A_AC3
Продолжительность: 1 ч. 57 м.
Вид битрейта: Постоянный
Битрейт: 384 Кбит/сек
Каналы: 6 каналов
Расположение каналов: Front: L C R, Side: L R, LFE
Частота: 48,0 КГц
Битовая глубина: 16 бит
Метод сжатия: С потерями
Размер потока: 322 Мбайт (15%)












Поделиться:




реклама партнёра


Вернуться к началу
 Профиль Отправить личное сообщение  
 
   Похожие торренты   Автор   Торрент   Размер 
В этой теме нет новых непрочитанных сообщений. Лара Крофт: Расхитительница гробниц / Lara Croft: Tomb Raider [боевик, фэнтези, приключения, 2001] BDRip, Avo [Гаврилов]

salma3

42 | 5

1.37 ГБ

В этой теме нет новых непрочитанных сообщений. Лара Крофт: Расхитительница гробниц 2 - Колыбель жизни / Lara Croft Tomb Raider: The Cradle of Life [боевик, фэнтези, приключения, 2003] BDRip, Avo [Гаврилов]

salma3

22 | 5

1.39 ГБ

В этой теме нет новых непрочитанных сообщений. Шальная карта / Wild Card (Саймон Уэст) [боевик, триллер, драма, криминал, 2015] WEB-DLRip, Mvo

Dracon

3 | 2

699.41 МБ

В этой теме нет новых непрочитанных сообщений. Шальная карта / Wild Card (Саймон Уэст) [боевик, триллер, драма, криминал, 2015] WEB-DLRip, Mvo

Dracon

30 | 4

1.37 ГБ

В этой теме нет новых непрочитанных сообщений. Шальная карта / Wild Card (Саймон Уэст) [боевик, триллер, драма, криминал, 2015] WEB-DLRip, dvo

Dracon

35 | 2

1.37 ГБ

В этой теме нет новых непрочитанных сообщений. Шальная карта / Wild Card (Саймон Уэст) [2015, боевик, триллер, драма, криминал, WEB-DLRip] dvo

Nickolas3435

350 | 12

744.93 МБ

В этой теме нет новых непрочитанных сообщений. Шальная карта / Wild Card (Саймон Уэст) [боевик, триллер, драма, криминал, 2015] BDRemux 1080p, Mvo+Avo+Sub

Dracon

77 | 5

15.87 ГБ


Начать новую тему Ответить на тему  [ 1 сообщение ] 




Для Мосгорсуда, Роскомнадзора и рекламодателей:: mosgorsud-torrent[собачка]yandex.ru