Торрент файл
скачать торрент магнет ссылка Добавлен: 10 янв 2012, 19:00
Размер: 6.31 ГБ
Сидеров: 34
Личеров: 13
Автор

СообщениеДобавлено: 10 янв 2012, 19:00 

Не в сети
Супермодератор
Аватара пользователя
Дата регистрации:
11 апр 2010, 18:10
Спасибо: 5801 / 7
Сообщения: 56779
Ип Ман / Ip Man



Перевод: Профессиональный (одноголосый),субтитры: отсутствуют
Формат: HDRip-AVC, MKV, H.264, AC3
Страна: Гонконг
Жанр: боевик, драма, биография, история
Продолжительность: 01:46:00
Режиссер: Уилсон Ип / Wilson Yip
Год выпуска: 2008

В ролях: Донни Йен, Саймон Ям, Фан Сиу Вонг, Гордон Лам, Ксинг Ю, Вонг Ю Нам, Чен Жи Хуи, Хироюки Икючи, Маллика Шерават

Описание:Ип Ман — признанный мастер кунг фу, живущий в Фуошане, городе, славном своими школами боевых искусств. Ип Ман практикует Вин Чун и хотя является сильнейшим бойцом города, своей школы у него нет, и он не берет учеников. Дома он проводит лишь легкие спарринги с приятелями, чтобы указать на ошибки друг друга. Проходят годы, Китай захватывают воинственные японцы, и Ип Ман оказывается одним из немногих, кто даже в жесточайших условиях оккупации не забывает о чести, достоинстве и, конечно же, мудрости, которую несет в себе кунг фу.

________

Видео: 1280x 544 (2:35:1), 24,000 кадр/сек, AVC (х264),High@L4.0, ~2445 Kbps, 0.146 bit/pixel
Аудио: 48 kHz, AC3 Dolby Digital, 3/2 (L,C,R,l,r) + LFE ch, ~384 kbps


Автор РИПа:ddimmon22
Общее
Уникальный идентификатор: 215098742512171784297377377513597991700 (0xA1D282CBAE4C3B3E92293D046C3E7B14)
Полное имя: I:\РИПЫ\ip_man_[tfile.ru]\ip_man_[tfile.ru].mkv
Формат: Matroska
Версия формата: Version 2
Размер файла: 2,10 Гбайт
Продолжительность: 1 ч. 46 м.
Общий поток: 2830 Кбит/сек
Дата кодирования: UTC 2011-10-03 07:07:54
Программа кодирования: mkvmerge v4.9.1 ('Ich will') сборка от Aug 10 2011 09:31:20
Библиотека кодирования: libebml v1.2.1 + libmatroska v1.2.0

Видео
Идентификатор: 1
Формат: AVC
Формат/Информация: Advanced Video Codec
Профиль формата: High@L4.0
Параметр CABAC формата: Да
Параметр ReFrames формата: 8 кадров
Идентификатор кодека: V_MPEG4/ISO/AVC
Продолжительность: 1 ч. 46 м.
Битрейт: 2445 Кбит/сек
Ширина: 1280 пикс.
Высота: 544 пикс.
Соотношение сторон: 2,35:1
Частота кадров: 24,000 кадр/сек
Цветовое пространство: YUV
Подвыборка цветности: 4:2:0
Битовая глубина: 8 бит
Тип развёртки: Прогрессивная
Бит/(Пиксели*Кадры): 0.146
Размер потока: 1,78 Гбайт (84%)
Библиотека кодирования: x264 core 116 r2074 2641b9e
Настройки программы: cabac=1 / ref=8 / deblock=1:-1:-1 / analyse=0x3:0x133 / me=umh / subme=7 / psy=1 / psy_rd=1.00:0.10 / mixed_ref=1 / me_range=16 / chroma_me=1 / trellis=2 / 8x8dct=1 / cqm=0 / deadzone=21,11 / fast_pskip=0 / chroma_qp_offset=-3 / threads=6 / sliced_threads=0 / nr=0 / decimate=1 / interlaced=0 / bluray_compat=0 / constrained_intra=0 / bframes=3 / b_pyramid=2 / b_adapt=2 / b_bias=0 / direct=3 / weightb=1 / open_gop=0 / weightp=2 / keyint=250 / keyint_min=23 / scenecut=40 / intra_refresh=0 / rc_lookahead=50 / rc=2pass / mbtree=1 / bitrate=2445 / ratetol=1.0 / qcomp=0.60 / qpmin=0 / qpmax=69 / qpstep=4 / cplxblur=20.0 / qblur=0.5 / ip_ratio=1.40 / aq=1:1.00

Аудио
Идентификатор: 2
Формат: AC-3
Формат/Информация: Audio Coding 3
Расширение режима: CM (complete main)
Идентификатор кодека: A_AC3
Продолжительность: 1 ч. 46 м.
Вид битрейта: Постоянный
Битрейт: 384 Кбит/сек
Каналы: 6 каналов
Расположение каналов: Front: L C R, Side: L R, LFE
Частота: 48,0 КГц
Битовая глубина: 16 бит
Метод сжатия: С потерями
Размер потока: 292 Мбайт (14%)













Ип Ман 2 / Yip Man 2 / Ip Man 2



Перевод: Профессиональный (двухголосый),субтитры: отсутствуют
Формат: HDRip-AVC, MKV, H.264, AC3
Страна: Гонконг
Жанр: боевик, биография, история
Продолжительность: 01:47:00
Режиссер: Уилсон Ип / Wilson Yip
Год выпуска: 2010

В ролях: Донни Ен, Линн Хунг, Саймон Ям, Саммо Хунг Кам-Бо, Хуан Сяомин, Фан Сю-Вонг, Кент Чэн, Даррен Шахлави, Брюс Блэйн, Эмбер Чиа

Описание:Вторая Мировая война закончилась, но Китай все еще слаб и беден. Ип Ман открывает свою школу боевых искусств, однако завоевать свое место под солнцем оказывается непросто — чтобы избежать проблем, Ип Ману нужно сначала завоевать уважение представителей других кунгфу-школ, а председательствующему в их ассоциации Хунгу Ип Ман не понравился с первого взгляда. А тем временем в Гонконге усиливается присутствие британцев, и некоторые из них плевать хотели на китайские традиции и обычаи.

________

Видео: 1280x 544 (2:35:1), 23,976 кадр/сек, AVC (х264),High@L4.0, ~2406 Kbps, 0.144 bit/pixel
Аудио: 48 kHz, AC3 Dolby Digital, 3/2 (L,C,R,l,r) + LFE ch, ~384 kbps


Автор РИПа:ddimmon22
Общее
Уникальный идентификатор: 177801057359456463856299459312173426712 (0x85C33CF0ECE33504955CC0702087A81
Полное имя: I:\РИПЫ\ip_man_[tfile.ru]\yip_man_2_[tfile.ru].mkv
Формат: Matroska
Версия формата: Version 2
Размер файла: 2,10 Гбайт
Продолжительность: 1 ч. 47 м.
Общий поток: 2791 Кбит/сек
Дата кодирования: UTC 2011-10-03 21:13:12
Программа кодирования: mkvmerge v4.9.1 ('Ich will') сборка от Aug 10 2011 09:31:20
Библиотека кодирования: libebml v1.2.1 + libmatroska v1.2.0

Видео
Идентификатор: 1
Формат: AVC
Формат/Информация: Advanced Video Codec
Профиль формата: High@L4.0
Параметр CABAC формата: Да
Параметр ReFrames формата: 8 кадров
Идентификатор кодека: V_MPEG4/ISO/AVC
Продолжительность: 1 ч. 47 м.
Битрейт: 2406 Кбит/сек
Ширина: 1280 пикс.
Высота: 544 пикс.
Соотношение сторон: 2,35:1
Частота кадров: 23,976 кадр/сек
Цветовое пространство: YUV
Подвыборка цветности: 4:2:0
Битовая глубина: 8 бит
Тип развёртки: Прогрессивная
Бит/(Пиксели*Кадры): 0.144
Размер потока: 1,77 Гбайт (84%)
Библиотека кодирования: x264 core 116 r2074 2641b9e
Настройки программы: cabac=1 / ref=8 / deblock=1:-1:-1 / analyse=0x3:0x133 / me=umh / subme=7 / psy=1 / psy_rd=1.00:0.10 / mixed_ref=1 / me_range=16 / chroma_me=1 / trellis=2 / 8x8dct=1 / cqm=0 / deadzone=21,11 / fast_pskip=0 / chroma_qp_offset=-3 / threads=6 / sliced_threads=0 / nr=0 / decimate=1 / interlaced=0 / bluray_compat=0 / constrained_intra=0 / bframes=3 / b_pyramid=2 / b_adapt=2 / b_bias=0 / direct=3 / weightb=1 / open_gop=0 / weightp=2 / keyint=250 / keyint_min=23 / scenecut=40 / intra_refresh=0 / rc_lookahead=50 / rc=2pass / mbtree=1 / bitrate=2406 / ratetol=1.0 / qcomp=0.60 / qpmin=0 / qpmax=69 / qpstep=4 / cplxblur=20.0 / qblur=0.5 / ip_ratio=1.40 / aq=1:1.00

Аудио
Идентификатор: 2
Формат: AC-3
Формат/Информация: Audio Coding 3
Расширение режима: CM (complete main)
Идентификатор кодека: A_AC3
Продолжительность: 1 ч. 47 м.
Вид битрейта: Постоянный
Битрейт: 384 Кбит/сек
Каналы: 6 каналов
Расположение каналов: Front: L C R, Side: L R, LFE
Частота: 48,0 КГц
Битовая глубина: 16 бит
Метод сжатия: С потерями
Размер потока: 296 Мбайт (14%)












Ип Ман: Рождение легенды / Yip Man chinchyun



Перевод: Любительский (одноголосый),субтитры: отсутствуют
Формат: HDRip-AVC, MKV, H.264, AC3
Страна: Гонконг
Жанр: боевик
Продолжительность: 01:39:00
Режиссер: Херман Яу / Herman Yau
Год выпуска: 2010

В ролях: Ю-Ханг То, Фан Сю-Вонг, Саммо Хунг Кам-Бо, Хуанг И, Роуз Чан, Роуз Чан, Ип Чун, Чен Зи Хуи, Сует Лам

Описание:В детстве Ип Ман вместе со своим братом Е Тяньцы и младшей ученицей Ли Мэйхуэй учился боевым искусствам у известного мастера вин-чун Чэнь Хуашуня в городе Фошань. Спустя несколько лет, мастер Чэнь Хуашунь умер, и Ип Ман продолжил обучение у старшего ученика Чэнь Хуашуня — Чжунсу. Затем Ип Ман отправился в Гонконг, чтобы продолжить обучение боевым искусствам, расставшись с Е Тяньцы, Ли Мэйхуэй и другими учениками. Во время обучения в Гонконге, Ип Ман часто сталкивался с оскорблениями и дискриминацией со стороны иностранцев…

____

Видео: 1072x 448 (2:40:1), 24,000 кадр/сек, AVC (х264),High@L3.1, ~ 2634 Kbps, 0.229 bit/pixel
Аудио: 48 kHz, AC3 Dolby Digital, 3/2 (L,C,R,l,r) + LFE ch, ~384 kbps


Автор РИПа:ddimmon22
Общее
Уникальный идентификатор: 221313187492668042856259556303924922851 (0xA67F5E96C3D836F696832788474889E3)
Полное имя: I:\РИПЫ\ip_man_[tfile.ru]\yip_man_chinchyun_[tfile.ru].mkv
Формат: Matroska
Версия формата: Version 2
Размер файла: 2,10 Гбайт
Продолжительность: 1 ч. 39 м.
Общий поток: 3019 Кбит/сек
Дата кодирования: UTC 2011-10-02 22:19:04
Программа кодирования: mkvmerge v4.9.1 ('Ich will') сборка от Aug 10 2011 09:31:20
Библиотека кодирования: libebml v1.2.1 + libmatroska v1.2.0

Видео
Идентификатор: 1
Формат: AVC
Формат/Информация: Advanced Video Codec
Профиль формата: High@L3.1
Параметр CABAC формата: Да
Параметр ReFrames формата: 8 кадров
Идентификатор кодека: V_MPEG4/ISO/AVC
Продолжительность: 1 ч. 39 м.
Битрейт: 2634 Кбит/сек
Ширина: 1072 пикс.
Высота: 448 пикс.
Соотношение сторон: 2,40:1
Частота кадров: 24,000 кадр/сек
Цветовое пространство: YUV
Подвыборка цветности: 4:2:0
Битовая глубина: 8 бит
Тип развёртки: Прогрессивная
Бит/(Пиксели*Кадры): 0.229
Размер потока: 1,79 Гбайт (85%)
Библиотека кодирования: x264 core 116 r2074 2641b9e
Настройки программы: cabac=1 / ref=8 / deblock=1:-1:-1 / analyse=0x3:0x133 / me=umh / subme=7 / psy=1 / psy_rd=1.00:0.10 / mixed_ref=1 / me_range=16 / chroma_me=1 / trellis=2 / 8x8dct=1 / cqm=0 / deadzone=21,11 / fast_pskip=0 / chroma_qp_offset=-3 / threads=6 / sliced_threads=0 / nr=0 / decimate=1 / interlaced=0 / bluray_compat=0 / constrained_intra=0 / bframes=3 / b_pyramid=2 / b_adapt=2 / b_bias=0 / direct=3 / weightb=1 / open_gop=0 / weightp=2 / keyint=250 / keyint_min=23 / scenecut=40 / intra_refresh=0 / rc_lookahead=50 / rc=2pass / mbtree=1 / bitrate=2634 / ratetol=1.0 / qcomp=0.60 / qpmin=0 / qpmax=69 / qpstep=4 / cplxblur=20.0 / qblur=0.5 / ip_ratio=1.40 / aq=1:1.00

Аудио
Идентификатор: 2
Формат: AC-3
Формат/Информация: Audio Coding 3
Расширение режима: CM (complete main)
Идентификатор кодека: A_AC3
Продолжительность: 1 ч. 39 м.
Вид битрейта: Постоянный
Битрейт: 384 Кбит/сек
Каналы: 6 каналов
Расположение каналов: Front: L C R, Side: L R, LFE
Частота: 48,0 КГц
Битовая глубина: 16 бит
Метод сжатия: С потерями
Размер потока: 274 Мбайт (13%)












Поделиться:




реклама партнёра


Вернуться к началу
 Профиль Отправить личное сообщение  
 
   Похожие торренты   Автор   Торрент   Размер 
В этой теме нет новых непрочитанных сообщений. В сердце моря / In the Heart of the Sea (Рон Ховард) [2015, боевик, триллер, драма, приключения, биография, история, HDRip] Dub

Nickolas3435

2703 | 56

2.19 ГБ

В этой теме нет новых непрочитанных сообщений. В сердце моря / In the Heart of the Sea (Рон Ховард) [2015, боевик, триллер, драма, приключения, биография, история, HDRip] Dub

Nickolas3435

18969 | 903

1.46 ГБ

В этой теме нет новых непрочитанных сообщений. В сердце моря / In the Heart of the Sea [боевик, триллер, драма, приключения, биография, история, 2015] HDRip, Dub [iTunes] [КПК]

salma3

329 | 27

577.92 МБ

В этой теме нет новых непрочитанных сообщений. Свободный штат Джонса / Free State of Jones [Боевик, драма, военный, биография, история, 2016] HDRip, Мvo

salma3

2260 | 342

1.37 ГБ

В этой теме нет новых непрочитанных сообщений. Инспектор пришёл / San Taam Ka To (Бак-Минг Вонг, Херман Яу) [Боевик, Комедия, 2015] HDRip, avo

Dracon

3 | 2

1.37 ГБ

В этой теме нет новых непрочитанных сообщений. Красный барон / Der Rote Baron [боевик, драма, военный, биография, 2008] HDRip, Dvo

salma3

32 | 4

1.45 ГБ

В этой теме нет новых непрочитанных сообщений. Адмирал / Michiel de Ruyter (Роэль Рейн) [Боевик, биография, история, 2015] HDRip, dvo

Dracon

296 | 24

2.05 ГБ


Начать новую тему Ответить на тему  [ 1 сообщение ] 




Для Мосгорсуда, Роскомнадзора и рекламодателей:: mosgorsud-torrent[собачка]yandex.ru