Торрент файл
скачать торрент магнет ссылка Добавлен: 10 янв 2012, 18:59
Размер: 6.16 ГБ
Сидеров: 275
Личеров: 57
Автор

СообщениеДобавлено: 10 янв 2012, 18:59 

Не в сети
Супермодератор
Аватара пользователя
Дата регистрации:
11 апр 2010, 18:10
Спасибо: 5801 / 7
Сообщения: 56779
Трансформеры / Transformers


Слоган: «Наш мир. Их война»
Перевод: Профессиональный (полное дублирование) [лицензия]
Субтитры: отсутствуют
Формат: HDRip-AVC, MKV, H.264, AC3

Страна: США

Режиссер: Майкл Бэй
Жанр: фантастика, боевик
Продолжительность: 02:23:30

Год выпуска: 2007

В ролях: Шайа ЛаБаф, Меган Фокс, Джош Дюамель, Тайриз Гибсон, Рэйчел Тейлор, Энтони Андерсон, Джон Войт, Джон Туртурро, Майкл О’Нил, Кевин Данн

Описание: В течение многих столетий две расы роботов-инопланетян - Автоботы и Десептиконы - вели войну, ставкой в которой была судьба Bселенной. И вот война докатилась до Земли. В то время, когда силы зла ищут ключ к верховной власти, наш последний шанс на спасение находится в руках юного землянина. Единственное, что стоит между несущими зло Десептиконами и высшей властью - это ключ, находящийся в руках простого парнишки. Обычный подросток, Сэм Уитвикки озабочен повседневными хлопотами - школа, друзья, машины, девочки. Не ведая о том, что он является последним шансом человечества на спасение, Сэм вместе со своей подругой Микаэлой оказывается вовлеченным в противостояние Автоботов и Десептиконов. Только тогда Сэм понимает истинное значение семейного девиза Уитвикки - "без жертв нет победы!"



Видео: 720x304 (2.35:1), 23.976 fps, AVC (х264) High@L4.1, ~ 1 562 Kbps, 0.298 bit/pixel
Аудио: 48 kHz, AC3 Dolby Digital, 3/2 (L,C,R,l,r) + LFE ch, ~448 kbps avg

Релиз группы:

C:\Documents and Settings\User\Мои документы\transformers_trilogiya_[tfile.ru]\transformers_[tfile.ru].mkv
General
Complete name : C:\Documents and Settings\User\Мои документы\transformers_trilogiya_[tfile.ru]\transformers_[tfile.ru].mkv
Format : Matroska
File size : 2.05 GiB
Duration : 2h 23mn
Overall bit rate : 2 051 Kbps
Movie name : Transformers (2007) Release for Uniongang.tv
Encoded date : UTC 2011-10-22 21:34:07
Writing application : mkvmerge v5.0.1 ('Es ist Sommer') built on Oct9 2011 11:55:43
Writing library : libebml v1.2.2 + libmatroska v1.3.0
Video #1
ID : 1
Format : AVC
Format/Info : Advanced Video Codec
Format profile : High@L4.1
Format settings, CABAC : Yes
Format settings, ReFrames : 12 frames
Muxing mode : Container profile=Unknown@4.1
Codec ID : V_MPEG4/ISO/AVC
Duration : 2h 23mn
Bit rate : 1 562 Kbps
Nominal bit rate : 1 602 Kbps
Width : 720 pixels
Height : 304 pixels
Display aspect ratio : 2.35:1
Frame rate : 23.976 fps
Resolution : 8 bits
Colorimetry : 4:2:0
Scan type : Progressive
Bits/(Pixel*Frame) : 0.298
Stream size : 1.57 GiB (76%)
Title : Transformers (2007) Release for Uniongang.tv
Writing library : x264 core 116 r2074 2641b9e
Encoding settings : cabac=1 / ref=12 / deblock=1:-3:-3 / analyse=0x3:0x113 / me=umh / subme=7 / psy=1 / psy_rd=1.10:0.00 / mixed_ref=1 / me_range=32 / chroma_me=1 / trellis=2 / 8x8dct=1 / cqm=0 / deadzone=21,11 / fast_pskip=1 / chroma_qp_offset=-2 / threads=12 / sliced_threads=0 / nr=0 / decimate=1 / interlaced=0 / bluray_compat=0 / constrained_intra=0 / bframes=9 / b_pyramid=2 / b_adapt=2 / b_bias=0 / direct=3 / weightb=1 / open_gop=0 / weightp=2 / keyint=250 / keyint_min=23 / scenecut=40 / intra_refresh=0 / rc_lookahead=50 / rc=2pass / mbtree=1 / bitrate=1602 / ratetol=1.0 / qcomp=0.70 / qpmin=10 / qpmax=51 / qpstep=4 / cplxblur=20.0 / qblur=0.5 / vbv_maxrate=50000 / vbv_bufsize=62500 / nal_hrd=none / ip_ratio=1.40 / aq=1:1.00
Audio #2
ID : 2
Format : AC-3
Format/Info : Audio Coding 3
Format_Settings_ModeExtension : CM (complete main)
Codec ID : A_AC3
Duration : 2h 23mn
Bit rate mode : Constant
Bit rate : 448 Kbps
Channel(s) : 6 channels
Channel positions : Front: L C R, Side: L R, LFE
Sampling rate : 48.0 KHz
Stream size : 460 MiB (22%)
Title : Russian: AC3, 448 kb/s (6 ch)
Language : Russian













Трансформеры: Месть падших / Transformers: Revenge of the Fallen


Слоган: «Месть неминуема»
Перевод: Профессиональный (полное дублирование) [лицензия]
Субтитры: отсутствуют
Формат: HDRip-AVC, MKV, H.264, AC3

Страна: США

Режиссер: Майкл Бэй
Жанр: фантастика, боевик, триллер, приключения
Продолжительность: 02:30:24

Год выпуска: 2009

В ролях: Шайа ЛаБаф, Меган Фокс, Джош Дюамель, Тайриз Гибсон, Джон Туртурро, Рамон Родригез, Кевин Данн, Джули Уайт, Изабель Лукас, Джон Бенжамин Хикки

Описание: Прошло два года с тех пор, как юный Сэм Уитвикки спас Вселенную, предотвратив глобальную битву между враждующими воинственными расами инопланетных роботов. Несмотря на свои героические подвиги, Сэм остается обычным подростком с обычными проблемами - поступление в колледж и родителями. Разумеется, отъезд будет тяжело воспринят лучшим другом, роботом - телохранителем Бамблби. Сэм изо всех сил пытается забыть о конфликте в Мишн Сити и вернуться к нормальной жизни. Однако битва между Автоботами и Десептиконами, несмотря на гриф полной секретности, многое изменила...



Видео: 720x304 (2.35:1), 23.976 fps, AVC (х264) High@L4.1, ~ 1 469 Kbps, 0.280 bit/pixel
Аудио: 48 kHz, AC3 Dolby Digital, 3/2 (L,C,R,l,r) + LFE ch, ~448 kbps avg

Релиз группы:

C:\Documents and Settings\User\Мои документы\transformers_trilogiya_[tfile.ru]\transformers_Revenge_of_the_fallen_[tfile.ru].mkv
General
Complete name : C:\Documents and Settings\User\Мои документы\transformers_trilogiya_[tfile.ru]\transformers_Revenge_of_the_fallen_[tfile.ru].mkv
Format : Matroska
File size : 2.05 GiB
Duration : 2h 29mn
Overall bit rate : 1 956 Kbps
Movie name : Transformers: Revenge of the Fallen (2009) Release for Uniongang.tv
Encoded date : UTC 2011-10-22 21:45:00
Writing application : mkvmerge v5.0.1 ('Es ist Sommer') built on Oct9 2011 11:55:43
Writing library : libebml v1.2.2 + libmatroska v1.3.0
Video #1
ID : 1
Format : AVC
Format/Info : Advanced Video Codec
Format profile : High@L4.1
Format settings, CABAC : Yes
Format settings, ReFrames : 12 frames
Muxing mode : Container profile=Unknown@4.1
Codec ID : V_MPEG4/ISO/AVC
Duration : 2h 29mn
Bit rate : 1 469 Kbps
Nominal bit rate : 1 510 Kbps
Width : 720 pixels
Height : 304 pixels
Display aspect ratio : 2.35:1
Frame rate : 23.976 fps
Resolution : 8 bits
Colorimetry : 4:2:0
Scan type : Progressive
Bits/(Pixel*Frame) : 0.280
Stream size : 1.54 GiB (75%)
Title : Transformers: Revenge of the Fallen (2009) Release for Uniongang.tv
Writing library : x264 core 112 r1867 22bfd31
Encoding settings : cabac=1 / ref=12 / deblock=1:-3:-3 / analyse=0x3:0x133 / me=hex / subme=7 / psy=1 / psy_rd=1.00:0.24 / mixed_ref=1 / me_range=16 / chroma_me=1 / trellis=2 / 8x8dct=1 / cqm=0 / deadzone=21,11 / fast_pskip=1 / chroma_qp_offset=-3 / threads=12 / sliced_threads=0 / slices=4 / nr=0 / decimate=1 / interlaced=0 / constrained_intra=0 / bframes=8 / b_pyramid=2 / b_adapt=1 / b_bias=0 / direct=3 / weightb=1 / open_gop=1 / weightp=2 / keyint=24 / keyint_min=2 / scenecut=40 / intra_refresh=0 / rc_lookahead=24 / rc=2pass / mbtree=1 / bitrate=1510 / ratetol=1.0 / qcomp=0.60 / qpmin=10 / qpmax=51 / qpstep=4 / cplxblur=20.0 / qblur=0.5 / vbv_maxrate=40000 / vbv_bufsize=30000 / nal_hrd=vbr / ip_ratio=1.40 / aq=1:1.00
Color primaries : BT.709-5, BT.1361, IEC 61966-2-4, SMPTE RP177
Transfer characteristics : BT.709-5, BT.1361
Matrix coefficients : BT.709-5, BT.1361, IEC 61966-2-4 709, SMPTE RP177
Audio #2
ID : 2
Format : AC-3
Format/Info : Audio Coding 3
Format_Settings_ModeExtension : CM (complete main)
Codec ID : A_AC3
Duration : 2h 29mn
Bit rate mode : Constant
Bit rate : 448 Kbps
Channel(s) : 6 channels
Channel positions : Front: L C R, Side: L R, LFE
Sampling rate : 48.0 KHz
Stream size : 480 MiB (23%)
Title : Russian: AC3, 448 kb/s (6 ch)
Language : Russian













Трансформеры 3: Темная сторона Луны / Transformers: Dark of the Moon


Слоган: «Последний шанс цивилизации»
Перевод: Профессиональный (полное дублирование) [лицензия]
Субтитры: отсутствуют
Формат: HDRip-AVC, MKV, H.264, AC3

Страна: США

Режиссер: Майкл Бэй
Жанр: фантастика, боевик, приключения
Продолжительность: 02:34:23

Год выпуска: 2011

В ролях: Шайа ЛаБаф, Джош Дюамель, Джон Туртурро, Тайриз Гибсон, Роузи Хантингтон-Уайтли, Патрик Демпси, Кевин Данн, Джули Уайт, Хьюго Уивинг, Джон Малкович, Кен Жонг

Описание: Для наших героев наступили печальные будни: Сэм потерял Микаэлу, правительство выпускает законодательный акт о выселении Автоботов с Земли, а пока Мегатрон скрывается после позорного поражения Фоллена, десептикон Шокуэйв, правитель Кибертрона, готовится нанести визит нашей планете с совсем не добрыми намерениями. Действие заключительной части трилогии на этот раз охватит не только Землю, но и Луну, темная сторона которой хранит не менее темные тайны.



Видео: 720x304 (2.35:1), 23.976 fps, AVC (х264) High@L4.1, ~ 1 483 Kbps, 0.283 bit/pixel
Аудио: 48 kHz, AC3 Dolby Digital, 3/2 (L,C,R,l,r) + LFE ch, ~384 kbps avg

Релиз группы:

C:\Documents and Settings\User\Мои документы\transformers_trilogiya_[tfile.ru]\transformers_dark_of_the_moon_[tfile.ru].mkv
General
Complete name : C:\Documents and Settings\User\Мои документы\transformers_trilogiya_[tfile.ru]\transformers_dark_of_the_moon_[tfile.ru].mkv
Format : Matroska
File size : 2.05 GiB
Duration : 2h 34mn
Overall bit rate : 1 905 Kbps
Movie name : Transformers: Dark of the Moon (2011) Release for Uniongang.tv
Encoded date : UTC 2011-10-22 21:24:41
Writing application : mkvmerge v5.0.1 ('Es ist Sommer') built on Oct9 2011 11:55:43
Writing library : libebml v1.2.2 + libmatroska v1.3.0
Video #1
ID : 1
Format : AVC
Format/Info : Advanced Video Codec
Format profile : High@L4.1
Format settings, CABAC : Yes
Format settings, ReFrames : 12 frames
Muxing mode : Container profile=Unknown@4.1
Codec ID : V_MPEG4/ISO/AVC
Duration : 2h 34mn
Bit rate : 1 483 Kbps
Nominal bit rate : 1 520 Kbps
Width : 720 pixels
Height : 304 pixels
Display aspect ratio : 2.35:1
Frame rate : 23.976 fps
Resolution : 8 bits
Colorimetry : 4:2:0
Scan type : Progressive
Bits/(Pixel*Frame) : 0.283
Stream size : 1.60 GiB (78%)
Title : Transformers: Dark of the Moon (2011) Release for Uniongang.tv
Writing library : x264 core 116 r2074 2641b9e
Encoding settings : cabac=1 / ref=12 / deblock=1:-3:-3 / analyse=0x3:0x113 / me=umh / subme=7 / psy=1 / psy_rd=1.10:0.00 / mixed_ref=1 / me_range=32 / chroma_me=1 / trellis=2 / 8x8dct=1 / cqm=0 / deadzone=21,11 / fast_pskip=1 / chroma_qp_offset=-2 / threads=12 / sliced_threads=0 / nr=0 / decimate=1 / interlaced=0 / bluray_compat=0 / constrained_intra=0 / bframes=9 / b_pyramid=2 / b_adapt=2 / b_bias=0 / direct=3 / weightb=1 / open_gop=0 / weightp=2 / keyint=250 / keyint_min=23 / scenecut=40 / intra_refresh=0 / rc_lookahead=50 / rc=2pass / mbtree=1 / bitrate=1520 / ratetol=1.0 / qcomp=0.70 / qpmin=10 / qpmax=51 / qpstep=4 / cplxblur=20.0 / qblur=0.5 / vbv_maxrate=50000 / vbv_bufsize=62500 / nal_hrd=none / ip_ratio=1.40 / aq=1:1.00
Audio #2
ID : 2
Format : AC-3
Format/Info : Audio Coding 3
Format_Settings_ModeExtension : CM (complete main)
Codec ID : A_AC3
Duration : 2h 34mn
Bit rate mode : Constant
Bit rate : 384 Kbps
Channel(s) : 6 channels
Channel positions : Front: L C R, Side: L R, LFE
Sampling rate : 48.0 KHz
Stream size : 424 MiB (20%)
Title : Russian: AC3, 384 kb/s (6 ch)
Language : Russian









Поделиться:




реклама партнёра


Вернуться к началу
 Профиль Отправить личное сообщение  
 
   Похожие торренты   Автор   Торрент   Размер 
В этой теме нет новых непрочитанных сообщений. Трансформеры: Эпоха истребления / Transformers: Age Of Extinction (Майкл Бэй) [2014, Фантастика, боевик, приключения, ВDRip-AVC 1080p] [Дубляж, Чистый звук]

Враг Нароода

12 | 3

10.08 ГБ

В этой теме нет новых непрочитанных сообщений. Трансформеры: Эпоха истребления / Transformers: Age of Extinction [фантастика, боевик, приключения, 2014] HDRip, Dub [Blu-ray CEE]

Dracon

22 | 3

2.18 ГБ

В этой теме нет новых непрочитанных сообщений. Трансформеры: Эпоха истребления / Transformers: Age of Extinction [фантастика, боевик, приключения, 2014] HDRip, Dub [iPad]

salma3

41 | 3

2.19 ГБ

В этой теме нет новых непрочитанных сообщений. Трансформеры: Эпоха истребления / Transformers: Age of Extinction [фантастика, боевик, приключения, 2014] HDRip, Dub [Чистый звук]

salma3

651 | 3

2.74 ГБ

В этой теме нет новых непрочитанных сообщений. Трансформеры: Эпоха истребления / Transformers: Age of Extinction [фантастика, боевик, приключения, 2014] HDRip, Dub [Чистый звук]

salma3

5003 | 107

1.37 ГБ

В этой теме нет новых непрочитанных сообщений. Трансформеры: Эпоха истребления / Transformers: Age of Extinction [Фантастика, боевик, приключения, 2014] BDRip 720p, Dub+Sub [Blu-ray CEE]

Dracon

1 | 3

12.94 ГБ

В этой теме нет новых непрочитанных сообщений. Трансформеры: Эпоха истребления / Transformers: Age of Extinction [Фантастика, боевик, приключения, 2014] BDRip-AVC, Dub+Sub [Лицензия]

Dracon

85 | 6

4.78 ГБ


Начать новую тему Ответить на тему  [ 1 сообщение ] 




Для Мосгорсуда, Роскомнадзора и рекламодателей:: mosgorsud-torrent[собачка]yandex.ru