Торрент файл
скачать торрент магнет ссылка Добавлен: 10 янв 2012, 18:57
Размер: 17.48 ГБ
Сидеров: 183
Личеров: 57
Автор

СообщениеДобавлено: 10 янв 2012, 18:57 

Не в сети
Супермодератор
Аватара пользователя
Дата регистрации:
11 апр 2010, 18:10
Спасибо: 5803 / 7
Сообщения: 56779
[b]Гарри Поттер и философский камень / Harry Potter and the Sorcerer's Stone[/b]

Перевод: Профессиональный (полное дублирование)
Субтитры: русские, английские
Формат: HDRip-AVC, MKV, H.264, AC3
Страна:США, Великобритания
Режиссер: Крис Коламбус
Жанр: фэнтези, детектив, приключения, семейный
Продолжительность: 02:32:21
Год выпуска: 2001

В ролях: Дэниэл Рэдклифф, Руперт Гринт, Эмма Уотсон, Том Фелтон, Ричард Харрис, Мэгги Смит, Робби Колтрейн, Саундерс Триплетс, Фиона Шоу, Гарри Меллинг.

Описание: Обычный лондонский мальчик Гарри Поттер на 11-м году жизни узнает, что он — осиротевший сын двух могущественных волшебников, и сам обладает магической силой.

В Хогвартской школе чародейства и волшебства Гарри попадает в водоворот невероятных приключений. Он изучает квиддич — спорт высшего пилотажа, играет в захватывающую игру живыми шахматными фигурами, встречается с Темным Волшебником, который хочет его уничтожить.




Видео: 1024x432 (2.35:10, 23.976 fps, AVC MPEG-4 High@L4.1, ~1667 kbps avg, 0.157 bit/pixel
Аудио: 48 kHz, AC3 Dolby Digital, 3/2 (L,C,R,l,r) + LFE ch, ~384 kbps avg

Рип от: __


Общее
Уникальный идентификатор: 226923154753553742706983423525830486620 (0xAAB7CF5464561426AC2A0203176B6A5C)
Полное имя: D:\Temp\Гарри Поттер 0\HP1\HP1.2001.D.HDRip.mkv
Формат: Matroska
Размер файла: 2,18 Гбайт
Продолжительность: 2 ч. 32 м.
Общий поток: 2045 Кбит/сек
Название фильма: Harry.Potter.and.the.Sorcerer's.Stone.2001.D.HDRip.DXVA.Riper.S.I.D
Дата кодирования: UTC 2011-11-17 10:16:02
Программа кодирования: mkvmerge v2.9.8 ('C'est le bon') built on Aug 13 2009 12:49:06
Библиотека кодирования: libebml v0.7.7 + libmatroska v0.8.1

Видео
Идентификатор: 1
Формат: AVC
Формат/Информация: Advanced Video Codec
Профиль формата: High@L4.1
Параметр CABAC формата: Да
Параметр ReFrames формата: 8 кадров
Идентификатор кодека: V_MPEG4/ISO/AVC
Продолжительность: 2 ч. 32 м.
Битрейт: 1667 Кбит/сек
Ширина: 1024 пикс.
Высота: 432 пикс.
Соотношение сторон: 2,35:1
Частота кадров: 23,976 кадр/сек
Цветовое пространство: YUV
Подвыборка цветности: 4:2:0
Битовая глубина: 8 бит
Тип развёртки: Прогрессивная
Бит/(Пиксели*Кадры): 0.157
Размер потока: 1,72 Гбайт (79%)
Библиотека кодирования: x264 core 118 r2085 8a62835
Настройки программы: cabac=1 / ref=8 / deblock=1:-1:-1 / analyse=0x3:0x113 / me=hex / subme=7 / psy=1 / psy_rd=1.00:0.00 / mixed_ref=1 / me_range=16 / chroma_me=1 / trellis=2 / 8x8dct=1 / cqm=0 / deadzone=21,11 / fast_pskip=1 / chroma_qp_offset=-2 / threads=3 / sliced_threads=0 / nr=0 / decimate=1 / interlaced=0 / bluray_compat=0 / constrained_intra=0 / bframes=8 / b_pyramid=2 / b_adapt=1 / b_bias=0 / direct=1 / weightb=1 / open_gop=0 / weightp=2 / keyint=250 / keyint_min=23 / scenecut=40 / intra_refresh=0 / rc_lookahead=40 / rc=abr / mbtree=1 / bitrate=1667 / ratetol=1.0 / qcomp=0.60 / qpmin=0 / qpmax=69 / qpstep=4 / ip_ratio=1.40 / aq=1:1.00
Язык: English

Аудио
Идентификатор: 2
Формат: AC-3
Формат/Информация: Audio Coding 3
Расширение режима: CM (complete main)
Идентификатор кодека: A_AC3
Продолжительность: 2 ч. 32 м.
Вид битрейта: Постоянный
Битрейт: 384 Кбит/сек
Каналы: 6 каналов
Расположение каналов: Front: L C R, Side: L R, LFE
Частота: 48,0 КГц
Битовая глубина: 16 бит
Метод сжатия: С потерями
Размер потока: 418 Мбайт (19%)
Заголовок: Дубляж
Язык: Russian

Текст #1
Идентификатор: 3
Формат: UTF-8
Идентификатор кодека: S_TEXT/UTF8
Идентификатор кодека/Информация: UTF-8 Plain Text
Язык: Russian

Текст #2
Идентификатор: 4
Формат: UTF-8
Идентификатор кодека: S_TEXT/UTF8
Идентификатор кодека/Информация: UTF-8 Plain Text
Язык: English










[b]Гарри Поттер и тайная комната / Harry Potter and the Chamber of Secrets[/b]


Перевод: Профессиональный (полное дублирование)
Субтитры: русские, английские
Формат: HDRip-AVC, MKV, H.264, AC3
Страна:США, Германия, Великобритания
Режиссер: Крис Коламбус
Жанр: фэнтези, детектив, приключения, семейный
Продолжительность: 02:40:56
Год выпуска: 2002

В ролях: Дэниэл Рэдклифф, Руперт Гринт, Эмма Уотсон, Том Фелтон, Джейсон Айзекс, Робби Колтрейн, Кеннет Брэна, Алан Рикман, Ричард Харрис, Мэгги Смит.

Описание: Гарри Поттер переходит на второй курс Школы чародейства и волшебства Хогвартс. Эльф Добби предупреждает Гарри об опасности, которая поджидает его там, и просит больше не возвращаться в школу.

Юный волшебник не следует совету эльфа и становится свидетелем таинственных событий, разворачивающихся в Хогвартсе. Вскоре Гарри и его друзья узнают о существовании Тайной Комнаты и сталкиваются с новыми приключениями, пытаясь победить темные силы.




Видео: 1024x432 (2.35:1), 23.976 fps, AVC MPEG-4 High@L4.1, ~1559 kbps avg, 0.147 bit/pixel
Аудио: 48 kHz, AC3 Dolby Digital, 3/2 (L,C,R,l,r) + LFE ch, ~384 kbps avg

Рип от: __


Общее
Уникальный идентификатор: 228937538789027978371466995112200518633 (0xAC3BC4216932B26198D476C826BA3BE9)
Полное имя: D:\Temp\Гарри Поттер 0\HP2\HP2.2002.D.HDRip.mkv
Формат: Matroska
Размер файла: 2,18 Гбайт
Продолжительность: 2 ч. 40 м.
Общий поток: 1941 Кбит/сек
Название фильма: Harry.Potter.and.the.Chamber.of.Secrets.2002.D.HDRip.DXVA.Riper.S.I.D
Дата кодирования: UTC 2011-11-17 01:24:38
Программа кодирования: mkvmerge v2.9.8 ('C'est le bon') built on Aug 13 2009 12:49:06
Библиотека кодирования: libebml v0.7.7 + libmatroska v0.8.1

Видео
Идентификатор: 1
Формат: AVC
Формат/Информация: Advanced Video Codec
Профиль формата: High@L4.1
Параметр CABAC формата: Да
Параметр ReFrames формата: 8 кадров
Идентификатор кодека: V_MPEG4/ISO/AVC
Продолжительность: 2 ч. 40 м.
Битрейт: 1559 Кбит/сек
Ширина: 1024 пикс.
Высота: 432 пикс.
Соотношение сторон: 2,35:1
Частота кадров: 23,976 кадр/сек
Цветовое пространство: YUV
Подвыборка цветности: 4:2:0
Битовая глубина: 8 бит
Тип развёртки: Прогрессивная
Бит/(Пиксели*Кадры): 0.147
Размер потока: 1,71 Гбайт (78%)
Библиотека кодирования: x264 core 118 r2085 8a62835
Настройки программы: cabac=1 / ref=8 / deblock=1:-1:-1 / analyse=0x3:0x111 / me=hex / subme=7 / psy=1 / psy_rd=1.00:0.00 / mixed_ref=1 / me_range=16 / chroma_me=1 / trellis=2 / 8x8dct=1 / cqm=0 / deadzone=21,11 / fast_pskip=1 / chroma_qp_offset=-2 / threads=3 / sliced_threads=0 / nr=0 / decimate=1 / interlaced=0 / bluray_compat=0 / constrained_intra=0 / bframes=8 / b_pyramid=2 / b_adapt=1 / b_bias=0 / direct=1 / weightb=1 / open_gop=0 / weightp=2 / keyint=250 / keyint_min=23 / scenecut=40 / intra_refresh=0 / rc_lookahead=40 / rc=abr / mbtree=1 / bitrate=1559 / ratetol=1.0 / qcomp=0.60 / qpmin=0 / qpmax=69 / qpstep=4 / ip_ratio=1.40 / aq=1:1.00
Язык: English

Аудио
Идентификатор: 2
Формат: AC-3
Формат/Информация: Audio Coding 3
Расширение режима: CM (complete main)
Идентификатор кодека: A_AC3
Продолжительность: 2 ч. 40 м.
Вид битрейта: Постоянный
Битрейт: 384 Кбит/сек
Каналы: 6 каналов
Расположение каналов: Front: L C R, Side: L R, LFE
Частота: 48,0 КГц
Битовая глубина: 16 бит
Метод сжатия: С потерями
Размер потока: 442 Мбайт (20%)
Заголовок: Дубляж
Язык: Russian

Текст #1
Идентификатор: 3
Формат: UTF-8
Идентификатор кодека: S_TEXT/UTF8
Идентификатор кодека/Информация: UTF-8 Plain Text
Язык: Russian

Текст #2
Идентификатор: 4
Формат: UTF-8
Идентификатор кодека: S_TEXT/UTF8
Идентификатор кодека/Информация: UTF-8 Plain Text
Язык: English










[b]Гарри Поттер и узник Азкабана / Harry Potter and the Prisoner of Azkaban[/b]


Перевод: Профессиональный (полное дублирование)
Субтитры: русские, английские
Формат: HDRip-AVC, MKV, H.264, AC3
Страна:США, Великобритания
Режиссер: Альфонсо Куарон
Жанр: фэнтези, детектив, приключения, семейный
Продолжительность: 02:21:42
Год выпуска: 2004

В ролях: Дэниэл Рэдклифф, Руперт Гринт, Эмма Уотсон, Том Фелтон, Гари Олдман, Дэвид Тьюлис, Майкл Гэмбон, Алан Рикман, Мэгги Смит, Робби Колтрейн.

Описание: В третьей части экранизации бестселлера о юном волшебнике, полюбившиеся всем герои — Гарри Поттер, Рон и Гермиона — возвращаются уже на третий курс школы чародейства и волшебства «Хогвартс». На этот раз они должны раскрыть тайну узника, сбежавшего из зловещей тюрьмы Азкабан, чье пребывание на воле создает для Гарри смертельную опасность…



Видео: 1024x432 (2.35:1), 23.976 fps, AVC MPEG-4 High@L4.1, ~1821 kbps avg, 0.172 bit/pixel
Аудио: 48 kHz, AC3 Dolby Digital, 3/2 (L,C,R,l,r) + LFE ch, ~384 kbps avg

Рип от: __


Общее
Уникальный идентификатор: 204993056041614427520596120250230441967 (0x9A3839FC0C53C0B5AA5AC7A5346707EF)
Полное имя: D:\Temp\Гарри Поттер 0\HP3\HP3.2004.D.HDRip.mkv
Формат: Matroska
Размер файла: 2,19 Гбайт
Продолжительность: 2 ч. 21 м.
Общий поток: 2210 Кбит/сек
Название фильма: Harry.Potter.and.the.Prisoner.of.Azkaban.2004.D.HDRip.DXVA.Riper.S.I.D
Дата кодирования: UTC 2011-11-17 01:01:54
Программа кодирования: mkvmerge v2.9.8 ('C'est le bon') built on Aug 13 2009 12:49:06
Библиотека кодирования: libebml v0.7.7 + libmatroska v0.8.1

Видео
Идентификатор: 1
Формат: AVC
Формат/Информация: Advanced Video Codec
Профиль формата: High@L4.1
Параметр CABAC формата: Да
Параметр ReFrames формата: 8 кадров
Идентификатор кодека: V_MPEG4/ISO/AVC
Продолжительность: 2 ч. 21 м.
Битрейт: 1821 Кбит/сек
Ширина: 1024 пикс.
Высота: 432 пикс.
Соотношение сторон: 2,35:1
Частота кадров: 23,976 кадр/сек
Цветовое пространство: YUV
Подвыборка цветности: 4:2:0
Битовая глубина: 8 бит
Тип развёртки: Прогрессивная
Бит/(Пиксели*Кадры): 0.172
Размер потока: 1,76 Гбайт (81%)
Библиотека кодирования: x264 core 79 r1342kMod e8501ef
Настройки программы: cabac=1 / ref=8 / deblock=1:0:0 / analyse=0x3:0x111 / me=hex / subme=4 / psy=1 / psy_rd=0.0:0.0 / mixed_ref=1 / me_range=16 / chroma_me=1 / trellis=2 / 8x8dct=1 / cqm=0 / deadzone=21,11 / chroma_qp_offset=0 / threads=3 / nr=0 / decimate=1 / mbaff=0 / constrained_intra=0 / bframes=3 / b_pyramid=0 / b_adapt=1 / b_bias=0 / direct=1 / wpredb=1 / wpredp=2 / keyint=250 / keyint_min=25 / scenecut=40 / rc_lookahead=40 / rc=abr / mbtree=1 / bitrate=1821 / ratetol=1.0 / qcomp=0.60 / qpmin=10 / qpmax=51 / qpstep=4 / ip_ratio=1.40 / aq=1:1.00
Язык: English

Аудио
Идентификатор: 2
Формат: AC-3
Формат/Информация: Audio Coding 3
Расширение режима: CM (complete main)
Идентификатор кодека: A_AC3
Продолжительность: 2 ч. 21 м.
Вид битрейта: Постоянный
Битрейт: 384 Кбит/сек
Каналы: 6 каналов
Расположение каналов: Front: L C R, Side: L R, LFE
Частота: 48,0 КГц
Битовая глубина: 16 бит
Метод сжатия: С потерями
Размер потока: 389 Мбайт (17%)
Заголовок: Дубляж
Язык: Russian

Текст #1
Идентификатор: 3
Формат: UTF-8
Идентификатор кодека: S_TEXT/UTF8
Идентификатор кодека/Информация: UTF-8 Plain Text
Язык: Russian

Текст #2
Идентификатор: 4
Формат: UTF-8
Идентификатор кодека: S_TEXT/UTF8
Идентификатор кодека/Информация: UTF-8 Plain Text
Язык: English










[b]Гарри Поттер и кубок огня / Harry Potter and the Goblet of Fire[/b]


Перевод: Профессиональный (полное дублирование)
Субтитры: русские, английские
Формат: HDRip-AVC, MKV, H.264, AC3
Страна:США, Великобритания
Режиссер: Майк Ньюэлл
Жанр: фэнтези, детектив, приключения, семейный
Продолжительность: 02:37:05
Год выпуска: 2005

В ролях: Дэниэл Рэдклифф, Руперт Гринт, Эмма Уотсон, Роберт Паттинсон, Рэйф Файнс, Брендан Глисон, Алан Рикман, Майкл Гэмбон, Робби Колтрейн, Мэгги Смит.

Описание: Гарри Поттер, Рон и Гермиона возвращаются на четвертый курс школы чародейства и волшебства «Хогвартс». При таинственных обстоятельствах Гарри отобран в число участников опасного соревнования — Турнира Трех Волшебников, однако проблема в том, что все его соперники — намного старше и сильнее.



Видео: 1024x432 (2.35:1), 23.976 fps, AVC MPEG-4 High@L4.1, ~1605 kbps avg, 0.151 bit/pixel
Аудио: 48 kHz, AC3 Dolby Digital, 3/2 (L,C,R,l,r) + LFE ch, ~384 kbps avg

Рип от: __


Общее
Уникальный идентификатор: 206994863315998769733642053778172939699 (0x9BB9C2B4066219868FB35DFF54A60DB3)
Полное имя: D:\Temp\Гарри Поттер 0\HP4\HP4.2005.D.HDRip.mkv
Формат: Matroska
Размер файла: 2,17 Гбайт
Продолжительность: 2 ч. 37 м.
Общий поток: 1979 Кбит/сек
Название фильма: Harry.Potter.and.the.Goblet.of.Fire.2005.D.HDRip.DXVA.Riper.S.I.D
Дата кодирования: UTC 2011-11-17 00:39:45
Программа кодирования: mkvmerge v2.9.8 ('C'est le bon') built on Aug 13 2009 12:49:06
Библиотека кодирования: libebml v0.7.7 + libmatroska v0.8.1

Видео
Идентификатор: 1
Формат: AVC
Формат/Информация: Advanced Video Codec
Профиль формата: High@L4.1
Параметр CABAC формата: Да
Параметр ReFrames формата: 8 кадров
Идентификатор кодека: V_MPEG4/ISO/AVC
Продолжительность: 2 ч. 37 м.
Битрейт: 1605 Кбит/сек
Ширина: 1024 пикс.
Высота: 432 пикс.
Соотношение сторон: 2,35:1
Частота кадров: 23,976 кадр/сек
Цветовое пространство: YUV
Подвыборка цветности: 4:2:0
Битовая глубина: 8 бит
Тип развёртки: Прогрессивная
Бит/(Пиксели*Кадры): 0.151
Размер потока: 1,71 Гбайт (79%)
Библиотека кодирования: x264 core 79 r1342kMod e8501ef
Настройки программы: cabac=1 / ref=8 / deblock=1:0:0 / analyse=0x3:0x111 / me=hex / subme=3 / psy=1 / psy_rd=0.0:0.0 / mixed_ref=1 / me_range=16 / chroma_me=1 / trellis=2 / 8x8dct=1 / cqm=0 / deadzone=21,11 / chroma_qp_offset=0 / threads=3 / nr=0 / decimate=1 / mbaff=0 / constrained_intra=0 / bframes=3 / b_pyramid=0 / b_adapt=1 / b_bias=0 / direct=1 / wpredb=1 / wpredp=2 / keyint=250 / keyint_min=25 / scenecut=40 / rc_lookahead=40 / rc=abr / mbtree=1 / bitrate=1605 / ratetol=1.0 / qcomp=0.60 / qpmin=10 / qpmax=51 / qpstep=4 / ip_ratio=1.40 / aq=1:1.00
Язык: English

Аудио
Идентификатор: 2
Формат: AC-3
Формат/Информация: Audio Coding 3
Расширение режима: CM (complete main)
Идентификатор кодека: A_AC3
Продолжительность: 2 ч. 37 м.
Вид битрейта: Постоянный
Битрейт: 384 Кбит/сек
Каналы: 6 каналов
Расположение каналов: Front: L C R, Side: L R, LFE
Частота: 48,0 КГц
Битовая глубина: 16 бит
Метод сжатия: С потерями
Размер потока: 431 Мбайт (19%)
Заголовок: Дубляж
Язык: Russian

Текст #1
Идентификатор: 3
Формат: UTF-8
Идентификатор кодека: S_TEXT/UTF8
Идентификатор кодека/Информация: UTF-8 Plain Text
Язык: Russian

Текст #2
Идентификатор: 4
Формат: UTF-8
Идентификатор кодека: S_TEXT/UTF8
Идентификатор кодека/Информация: UTF-8 Plain Text
Язык: English










[b]Гарри Поттер и орден Феникса / Harry Potter and the Order of the Phoenix[/b]


Перевод: Профессиональный (полное дублирование)
Субтитры: русские, английские
Формат: HDRip-AVC, MKV, H.264, AC3
Страна:США, Великобритания
Режиссер: Дэвид Йэтс
Жанр: фэнтези, детектив, приключения, семейный
Продолжительность: 02:18:14
Год выпуска: 2007

В ролях: Дэниэл Рэдклифф, Руперт Гринт, Эмма Уотсон, Роберт Паттинсон, Рэйф Файнс, Брендан Глисон, Алан Рикман, Майкл Гэмбон, Робби Колтрейн, Мэгги Смит..

Описание: Гарри проводит свой пятый год обучения в школе Хогвартс и обнаруживает, что многие из членов волшебного сообщества отрицают сам факт недавнего состязания юного волшебника с воплощением вселенского зла Волдемортом, делая вид, что не имеют ни малейшего представления о том, что злодей вернулся.

Опасаясь, что почтенный глава Хогвартса Альбус Дамблдор распространяет лживые слухи о возвращении Волдеморта, стремясь подорвать авторитет Министра Магии Корнелиуса Фаджа и в дальнейшем занять его место, Корнелиус назначает нового профессора защиты от темных искусств, который должен будет пристально следить за Дамблдором и студентами Хогвартса.




Видео: 1024x432 (2.35:1), 23.976 fps, AVC MPEG-4 High@L4.1, ~1908 kbps avg, 0.18 bit/pixel
Аудио: 48 kHz, AC3 Dolby Digital, 3/2 (L,C,R,l,r) + LFE ch, ~384 kbps avg

Рип от: __


Формат: Matroska
Размер файла: 2,18 Гбайт
Продолжительность: 2 ч. 18 м.
Общий поток: 2255 Кбит/сек
Название фильма: Harry.Potter.and.the.Order.of.the.Phoenix.2007.D.HDRip.DXVA.Riper.S.I.D
Дата кодирования: UTC 2011-11-16 20:24:26
Программа кодирования: mkvmerge v2.9.8 ('C'est le bon') built on Aug 13 2009 12:49:06
Библиотека кодирования: libebml v0.7.7 + libmatroska v0.8.1

Видео
Идентификатор: 1
Формат: AVC
Формат/Информация: Advanced Video Codec
Профиль формата: High@L4.1
Параметр CABAC формата: Да
Параметр ReFrames формата: 8 кадров
Идентификатор кодека: V_MPEG4/ISO/AVC
Продолжительность: 2 ч. 18 м.
Битрейт: 1908 Кбит/сек
Ширина: 1024 пикс.
Высота: 432 пикс.
Соотношение сторон: 2,35:1
Частота кадров: 23,976 кадр/сек
Цветовое пространство: YUV
Подвыборка цветности: 4:2:0
Битовая глубина: 8 бит
Тип развёртки: Прогрессивная
Бит/(Пиксели*Кадры): 0.180
Размер потока: 1,76 Гбайт (81%)
Библиотека кодирования: x264 core 118 r2085 8a62835
Настройки программы: cabac=1 / ref=8 / deblock=1:-1:-1 / analyse=0x3:0x111 / me=umh / subme=4 / psy=1 / psy_rd=1.00:0.10 / mixed_ref=1 / me_range=16 / chroma_me=1 / trellis=2 / 8x8dct=1 / cqm=0 / deadzone=21,11 / fast_pskip=0 / chroma_qp_offset=-1 / threads=3 / sliced_threads=0 / nr=0 / decimate=1 / interlaced=0 / bluray_compat=0 / constrained_intra=0 / bframes=3 / b_pyramid=2 / b_adapt=2 / b_bias=0 / direct=1 / weightb=1 / open_gop=0 / weightp=2 / keyint=250 / keyint_min=23 / scenecut=40 / intra_refresh=0 / rc_lookahead=40 / rc=abr / mbtree=1 / bitrate=1908 / ratetol=1.0 / qcomp=0.60 / qpmin=0 / qpmax=69 / qpstep=4 / ip_ratio=1.40 / aq=1:1.00
Язык: English

Аудио
Идентификатор: 2
Формат: AC-3
Формат/Информация: Audio Coding 3
Расширение режима: CM (complete main)
Идентификатор кодека: A_AC3
Продолжительность: 2 ч. 18 м.
Вид битрейта: Постоянный
Битрейт: 384 Кбит/сек
Каналы: 6 каналов
Расположение каналов: Front: L C R, Side: L R, LFE
Частота: 48,0 КГц
Битовая глубина: 16 бит
Метод сжатия: С потерями
Размер потока: 380 Мбайт (17%)
Заголовок: Дубляж
Язык: Russian

Текст #1
Идентификатор: 3
Формат: UTF-8
Идентификатор кодека: S_TEXT/UTF8
Идентификатор кодека/Информация: UTF-8 Plain Text
Язык: Russian

Текст #2
Идентификатор: 4
Формат: UTF-8
Идентификатор кодека: S_TEXT/UTF8
Идентификатор кодека/Информация: UTF-8 Plain Text
Язык: English










[b]Гарри Поттер и Принц-полукровка / Harry Potter and the Half-Blood Prince[/b]


Перевод: Профессиональный (полное дублирование)
Субтитры: русские, английские
Формат: HDRip-AVC, MKV, H.264, AC3
Страна:США, Великобритания
Режиссер: Дэвид Йэтс
Жанр: фэнтези, детектив, приключения, семейный
Продолжительность: 02:33:30
Год выпуска: 2009

В ролях: Дэниэл Рэдклифф, Руперт Гринт, Эмма Уотсон, Майкл Гэмбон, Джим Броудбент, Бонни Райт, Хелена Бонем Картер, Алан Рикман, Том Фелтон, Эванна Линч.

Описание: Теперь не только мир волшебников, но и мир маглов ощущает на себе все возрастающую силу Волан-де-Морта, а Хогвартс уже никак не назовешь надежным убежищем, каким он был раньше. Гарри подозревает, что в самом замке затаилась некая опасность, но Дамблдор больше сосредоточен на том, чтобы подготовить его к финальной схватке, которая, как он знает, уже не за горами. Вместе они пытаются разгадать секрет бессмертия Волан-де-Морта, а для этого Дамблдор приглашает на должность преподавателя по зельеварению своего старинного друга и коллегу — профессора Горация Слизнорта, который обожает устраивать вечеринки для избранных и гордится своими обширными связями в высших кругах. Но этот бонвиван и не подозревает, что как раз от него Дамблдор надеется заполучить самую важную информацию о крестражах.



Видео: 1024x432 (2.35:1), 23.976 fps, AVC MPEG-4 High@L4.1, !1673 kbps avg, 0.158 bit/pixel
Аудио: 48 kHz, AC3 Dolby Digital, 3/2 (L,C,R,l,r) + LFE ch

Рип от: __


Общее
Уникальный идентификатор: 229939840211723371711111264413999987225 (0xACFCCD67EEC6A4B4815EE20D94387A19)
Полное имя: D:\Temp\Гарри Поттер 0\HP6\HP6.2009.D.HDRip.mkv
Формат: Matroska
Размер файла: 2,21 Гбайт
Продолжительность: 2 ч. 33 м.
Общий поток: 2057 Кбит/сек
Название фильма: Harry Potter and the half-blood prince.2009.D. HDRip.DXVA.Riper.S.I.D
Дата кодирования: UTC 2011-11-16 20:55:06
Программа кодирования: mkvmerge v2.9.8 ('C'est le bon') built on Aug 13 2009 12:49:06
Библиотека кодирования: libebml v0.7.7 + libmatroska v0.8.1

Видео
Идентификатор: 1
Формат: AVC
Формат/Информация: Advanced Video Codec
Профиль формата: High@L4.1
Параметр CABAC формата: Да
Параметр ReFrames формата: 8 кадров
Идентификатор кодека: V_MPEG4/ISO/AVC
Продолжительность: 2 ч. 33 м.
Битрейт: 1673 Кбит/сек
Ширина: 1024 пикс.
Высота: 432 пикс.
Соотношение сторон: 2,35:1
Частота кадров: 23,976 кадр/сек
Цветовое пространство: YUV
Подвыборка цветности: 4:2:0
Битовая глубина: 8 бит
Тип развёртки: Прогрессивная
Бит/(Пиксели*Кадры): 0.158
Размер потока: 1,75 Гбайт (79%)
Библиотека кодирования: x264 core 118 r2085 8a62835
Настройки программы: cabac=1 / ref=8 / deblock=1:-1:-1 / analyse=0x3:0x111 / me=umh / subme=4 / psy=1 / psy_rd=1.00:0.10 / mixed_ref=1 / me_range=16 / chroma_me=1 / trellis=2 / 8x8dct=1 / cqm=0 / deadzone=21,11 / fast_pskip=0 / chroma_qp_offset=-1 / threads=3 / sliced_threads=0 / nr=0 / decimate=1 / interlaced=0 / bluray_compat=0 / constrained_intra=0 / bframes=3 / b_pyramid=2 / b_adapt=2 / b_bias=0 / direct=1 / weightb=1 / open_gop=0 / weightp=2 / keyint=250 / keyint_min=23 / scenecut=40 / intra_refresh=0 / rc_lookahead=40 / rc=abr / mbtree=1 / bitrate=1673 / ratetol=1.0 / qcomp=0.60 / qpmin=0 / qpmax=69 / qpstep=4 / ip_ratio=1.40 / aq=1:1.00
Язык: English

Аудио
Идентификатор: 2
Формат: AC-3
Формат/Информация: Audio Coding 3
Расширение режима: CM (complete main)
Идентификатор кодека: A_AC3
Продолжительность: 2 ч. 33 м.
Вид битрейта: Постоянный
Битрейт: 384 Кбит/сек
Каналы: 6 каналов
Расположение каналов: Front: L C R, Side: L R, LFE
Частота: 48,0 КГц
Битовая глубина: 16 бит
Метод сжатия: С потерями
Размер потока: 422 Мбайт (19%)
Заголовок: Дубляж
Язык: Russian

Текст #1
Идентификатор: 3
Формат: UTF-8
Идентификатор кодека: S_TEXT/UTF8
Идентификатор кодека/Информация: UTF-8 Plain Text
Язык: Russian

Текст #2
Идентификатор: 4
Формат: UTF-8
Идентификатор кодека: S_TEXT/UTF8
Идентификатор кодека/Информация: UTF-8 Plain Text
Язык: English










[b]Гарри Поттер и Дары смерти: Часть I / Harry Potter and the Deathly Hallows: Part 1[/b]


Перевод: Профессиональный (полное дублирование)
Субтитры: русские, английские
Формат: HDRip-AVC, MKV, H.264, AC3
Страна:США, Великобритания
Режиссер: Дэвид Йэтс
Жанр: фэнтези, драма, детектив, приключения
Продолжительность: 02:26:05
Год выпуска: 2010

В ролях: Дэниэл Рэдклифф, Руперт Гринт, Эмма Уотсон, Том Фелтон, Бонни Райт, Алан Рикман, Рэйф Файнс, Хелена Бонем Картер, Майкл Гэмбон, Брендан Глисон.

Описание: Гарри Поттера ждёт самое страшное испытание в жизни — смертельная схватка с Волан-де-Мортом. Ждать помощи не от кого — Гарри одинок, как никогда… Друзья и враги Гарри предстают в совершенно неожиданном свете. Граница между Добром и Злом становится всё призрачнее…



Видео: 1024x432 (2.35:1), 23.976 fps, AVC MPEG-4 High@L4.1, ~1757 kbps avg, 0.166 bit/pixel
Аудио: 48 kHz, AC3 Dolby Digital, 3/2 (L,C,R,l,r) + LFE ch, ~384 kbps avg

Рип от: __


Общее
Уникальный идентификатор: 206449034766428341959879822194159529296 (0x9B50A3472A6380AC8BC73D3F3B1E2D50)
Полное имя: D:\Temp\Гарри Поттер 0\HP7\HP7.2010.D.HDRip.Part 1.mkv
Формат: Matroska
Размер файла: 2,18 Гбайт
Продолжительность: 2 ч. 26 м.
Общий поток: 2140 Кбит/сек
Название фильма: Harry Potter and the Deathly Hallows. Part.1.2010.D.HDRip.Riper.S.I.D
Дата кодирования: UTC 2011-11-16 23:40:20
Программа кодирования: mkvmerge v2.9.8 ('C'est le bon') built on Aug 13 2009 12:49:06
Библиотека кодирования: libebml v0.7.7 + libmatroska v0.8.1
Обложка: Yes

Видео
Идентификатор: 1
Формат: AVC
Формат/Информация: Advanced Video Codec
Профиль формата: High@L4.1
Параметр CABAC формата: Да
Параметр ReFrames формата: 8 кадров
Параметры GOP формата: M=4, N=48
Идентификатор кодека: V_MPEG4/ISO/AVC
Продолжительность: 2 ч. 26 м.
Битрейт: 1757 Кбит/сек
Ширина: 1024 пикс.
Высота: 432 пикс.
Соотношение сторон: 2,35:1
Частота кадров: 23,976 кадр/сек
Цветовое пространство: YUV
Подвыборка цветности: 4:2:0
Битовая глубина: 8 бит
Тип развёртки: Прогрессивная
Бит/(Пиксели*Кадры): 0.166
Размер потока: 1,75 Гбайт (80%)
Библиотека кодирования: x264 core 118 r2085 8a62835
Настройки программы: cabac=1 / ref=8 / deblock=1:-1:-1 / analyse=0x3:0x111 / me=umh / subme=0 / psy=1 / psy_rd=1.00:0.00 / mixed_ref=1 / me_range=16 / chroma_me=1 / trellis=2 / 8x8dct=1 / cqm=0 / deadzone=21,11 / fast_pskip=0 / chroma_qp_offset=0 / threads=3 / sliced_threads=0 / nr=0 / decimate=1 / interlaced=0 / bluray_compat=0 / constrained_intra=0 / bframes=3 / b_pyramid=2 / b_adapt=1 / b_bias=0 / direct=1 / weightb=1 / open_gop=0 / weightp=2 / keyint=250 / keyint_min=23 / scenecut=40 / intra_refresh=0 / rc_lookahead=40 / rc=abr / mbtree=1 / bitrate=1757 / ratetol=1.0 / qcomp=0.60 / qpmin=0 / qpmax=69 / qpstep=4 / ip_ratio=1.40 / aq=1:1.00
Язык: English

Аудио
Идентификатор: 2
Формат: AC-3
Формат/Информация: Audio Coding 3
Расширение режима: CM (complete main)
Идентификатор кодека: A_AC3
Продолжительность: 2 ч. 26 м.
Вид битрейта: Постоянный
Битрейт: 384 Кбит/сек
Каналы: 6 каналов
Расположение каналов: Front: L C R, Side: L R, LFE
Частота: 48,0 КГц
Битовая глубина: 16 бит
Метод сжатия: С потерями
Размер потока: 401 Мбайт (18%)
Заголовок: Дубляж
Язык: Russian

Текст #1
Идентификатор: 3
Формат: UTF-8
Идентификатор кодека: S_TEXT/UTF8
Идентификатор кодека/Информация: UTF-8 Plain Text
Язык: Russian

Текст #2
Идентификатор: 4
Формат: UTF-8
Идентификатор кодека: S_TEXT/UTF8
Идентификатор кодека/Информация: UTF-8 Plain Text
Язык: English










[b]Гарри Поттер и Дары смерти: Часть II / Harry Potter and the Deathly Hallows: Part 2[/b]


Перевод: Профессиональный (полное дублирование)
Субтитры: отсутствуют
Формат: HDRip-AVC, MKV, H.264, AC3
Страна:США, Великобритания
Режиссер: Дэвид Йэтс
Жанр: фэнтези, драма, детектив, приключения
Продолжительность: 02:10:26
Год выпуска: 2011

В ролях: Дэниэл Рэдклифф, Руперт Гринт, Эмма Уотсон, Рэйф Файнс, Алан Рикман, Хелена Бонем Картер, Том Фелтон, Гари Олдман, Майкл Гэмбон, Мэгги Смит.

Описание: В грандиозной последней главе битва между добрыми и злыми силами мира волшебников перерастает во всеобщую войну. Ставки ещё никогда не были так высоки, а поиск убежища — столь сложен. И быть может именно Гарри Поттеру придется пожертвовать всем в финальном сражении с Волан-де-Мортом. Способен ли наш герой спасти мир? И всё закончится здесь.



Видео: 1024x432 (2.35:1), 23.976 fps, AVC MPEG-4 High@L4.1, ~2029 kbps avg, 0.191 bit/pixel
Аудио: 48 kHz, AC3 Dolby Digital, 3/2 (L,C,R,l,r) + LFE ch, ~384 kbps avg

Релиз группы


Рип от: __


Общее
Уникальный идентификатор: 246103967421103151031964944278533239637 (0xB925E6684AEE7897BBCC4D301A80F355)
Полное имя: D:\Temp\Гарри Поттер 0\HP8\HP8.2011.D.HDRip.Part 2.mkv
Формат: Matroska
Размер файла: 2,19 Гбайт
Продолжительность: 2 ч. 10 м.
Общий поток: 2408 Кбит/сек
Название фильма: Harry Potter and the Deathly Hallows: Part 2.2011.D.HDRip.Riper.S.I.D
Дата кодирования: UTC 2011-11-17 10:09:31
Программа кодирования: mkvmerge v2.9.8 ('C'est le bon') built on Aug 13 2009 12:49:06
Библиотека кодирования: libebml v0.7.7 + libmatroska v0.8.1

Видео
Идентификатор: 1
Формат: AVC
Формат/Информация: Advanced Video Codec
Профиль формата: High@L4.1
Параметр CABAC формата: Да
Параметр ReFrames формата: 8 кадров
Идентификатор кодека: V_MPEG4/ISO/AVC
Продолжительность: 2 ч. 10 м.
Битрейт: 2029 Кбит/сек
Ширина: 1024 пикс.
Высота: 432 пикс.
Соотношение сторон: 2,35:1
Частота кадров: 23,976 кадр/сек
Цветовое пространство: YUV
Подвыборка цветности: 4:2:0
Битовая глубина: 8 бит
Тип развёртки: Прогрессивная
Бит/(Пиксели*Кадры): 0.191
Размер потока: 1,80 Гбайт (82%)
Библиотека кодирования: x264 core 118 r2085 8a62835
Настройки программы: cabac=1 / ref=8 / deblock=1:0:0 / analyse=0x3:0x111 / me=hex / subme=1 / psy=1 / psy_rd=1.00:0.00 / mixed_ref=1 / me_range=16 / chroma_me=1 / trellis=2 / 8x8dct=1 / cqm=0 / deadzone=21,11 / fast_pskip=1 / chroma_qp_offset=0 / threads=3 / sliced_threads=0 / nr=0 / decimate=1 / interlaced=0 / bluray_compat=0 / constrained_intra=0 / bframes=8 / b_pyramid=2 / b_adapt=2 / b_bias=0 / direct=1 / weightb=1 / open_gop=0 / weightp=2 / keyint=250 / keyint_min=23 / scenecut=40 / intra_refresh=0 / rc_lookahead=40 / rc=abr / mbtree=1 / bitrate=2029 / ratetol=1.0 / qcomp=0.60 / qpmin=0 / qpmax=69 / qpstep=4 / ip_ratio=1.40 / aq=1:1.00
Язык: English

Аудио
Идентификатор: 2
Формат: AC-3
Формат/Информация: Audio Coding 3
Расширение режима: CM (complete main)
Идентификатор кодека: A_AC3
Продолжительность: 2 ч. 10 м.
Вид битрейта: Постоянный
Битрейт: 384 Кбит/сек
Каналы: 6 каналов
Расположение каналов: Front: L C R, Side: L R, LFE
Частота: 48,0 КГц
Битовая глубина: 16 бит
Метод сжатия: С потерями
Размер потока: 358 Мбайт (16%)
Заголовок: Дубляж
Язык: Russian

Текст #1
Идентификатор: 3
Формат: UTF-8
Идентификатор кодека: S_TEXT/UTF8
Идентификатор кодека/Информация: UTF-8 Plain Text
Язык: Russian

Текст #2
Идентификатор: 4
Формат: UTF-8
Идентификатор кодека: S_TEXT/UTF8
Идентификатор кодека/Информация: UTF-8 Plain Text
Язык: English








Поделиться:




реклама партнёра


Вернуться к началу
 Профиль Отправить личное сообщение  
 
   Похожие торренты   Автор   Торрент   Размер 
В этой теме нет новых непрочитанных сообщений. Верь / Believe [S01] (Альфонсо Куарон, Роксанн Доусон) [2014, фэнтези, драма, WEB-DLRip | LostFilm]

Nickolas3435

517 | 188

5.34 ГБ

В этой теме нет новых непрочитанных сообщений. Поглощён Тарзан. Легенда / The Legend of Tarzan (Дэвид Йэтс) [2016, Боевик, приключения, HDRip | iTunes] Dub Данный торрент является блокированным, причина: поглощённый торрент

marya111

651 | 74

2.05 ГБ

В этой теме нет новых непрочитанных сообщений. Мисс Поттер / Miss Potter [драма, биография, 2006] BDRip 720p, Dub+Sub

salma3

21 | 2

3.18 ГБ

В этой теме нет новых непрочитанных сообщений. Да / Yes (Салли Поттер / Sally Potter) [2004г., Великобритания, драма, мелодрама, DVDRip] MVO

Alfredovich

8 | 0

1.45 ГБ

В этой теме нет новых непрочитанных сообщений. Тиран / Tyrant [S01] (Дэвид Йэтс) [2014, драма, WEB-DLRip | NewStudio]

Nickolas3435

279 | 85

5.67 ГБ

В этой теме нет новых непрочитанных сообщений. Когда Гарри встретил Салли / When Harry Met Sally... [драма, мелодрама, комедия, 1989] BDRip 720p, Mvo+Avo+Sub [Лицензия]

salma3

62 | 3

5.76 ГБ

В этой теме нет новых непрочитанных сообщений. Тиран / Tyrant [02х01-12] (Дэвид Йэтс) [2015, драма, WEB-DL 720p | NewStudio]

Dracon

15 | 31

18.17 ГБ


Начать новую тему Ответить на тему  [ 1 сообщение ] 




Для Мосгорсуда, Роскомнадзора и рекламодателей:: mosgorsud-torrent[собачка]yandex.ru