Торрент файл
скачать торрент магнет ссылка Добавлен: 10 янв 2012, 18:56
Размер: 4.36 ГБ
Сидеров: 17
Личеров: 7
Автор

СообщениеДобавлено: 10 янв 2012, 18:56 

Не в сети
Супермодератор
Аватара пользователя
Дата регистрации:
11 апр 2010, 18:10
Спасибо: 5801 / 7
Сообщения: 56779
Смоки и Бандит / Smokey and the Bandit


Перевод: Профессиональный (многоголосый, закадровый), cубтитры: отсутствуют
Формат: HDRip-AVC, MKV, H.264, AC3
Страна: США
Режиссер: Хэл Нидэм
Жанр: боевик, мелодрама, комедия, криминал
Продолжительность: 01:35:49
Год выпуска: 1977

В ролях: Берт Рейнолдс, Сэлли Филд, Джеки Глисон, Джерри Рид, Майк Хенри, Пол Уильямс

Описание: Парочка водителей, Бандит и Снеговик, берутся перевезти грузовик контрабандного пива из Тексарканы в Атланту за 48 часов. Схема проста: пока Бандит отвлекает полицейских на скоростном Трэнземе, Снеговик спокойно на грузовике едет за ним. В то же время шериф Бьюфорд Джастис решает во что бы то не стало поймать Бандита, так как невеста его сына сбежала со свадьбы и села к Бандиту в машину...



Видео: 848 x 456 (1:86:1), 23.976 fps, AVC (х264) High@L4.1, ~ 1978 Kbps, 0.213 bit/pixel
Аудио: 48 kHz, AC3 Dolby Digital, 2/0 (L,R) ch, ~192 kbps


Рип: jeenart

General
Unique ID: 183978395019967681771306521167267691857 (0x8A68F333C8F3C364804FB10423ECFD51)
Complete name: F:\Мои релизы\Все релизы 10\smoki_i_badit_[tfile.ru]\smoki_i_badit_1_[tfile.ru].mkv
Format: Matroska
File size: 1.45 GiB
Duration: 1h 35mn
Overall bit rate: 2 172 Kbps
Encoded date: UTC 2011-11-21 09:49:14
Writing application: mkvmerge v4.6.0 ('Still Crazy After All These Years') сборка от Apr1 2011 21:01:49
Writing library: libebml v1.2.0 + libmatroska v1.1.0

Video
ID: 1
Format: AVC
Format/Info: Advanced Video Codec
Format profile: High@L4.1
Format settings, CABAC: Yes
Format settings, ReFrames: 4 frames
Codec ID: V_MPEG4/ISO/AVC
Duration: 1h 35mn
Bit rate: 1 978 Kbps
Width: 848 pixels
Height: 456 pixels
Display aspect ratio: 1.860
Frame rate: 23.976 fps
Color space: YUV
Chroma subsampling: 4:2:0
Bit depth: 8 bits
Scan type: Progressive
Bits/(Pixel*Frame): 0.213
Stream size: 1.30 GiB (89%)
Writing library: x264 core 115 r1937 aa21558
Encoding settings: cabac=1 / ref=3 / deblock=1:-1:-1 / analyse=0x3:0x113 / me=hex / subme=7 / psy=1 / psy_rd=1.00:0.10 / mixed_ref=1 / me_range=16 / chroma_me=1 / trellis=1 / 8x8dct=1 / cqm=0 / deadzone=21,11 / fast_pskip=1 / chroma_qp_offset=-3 / threads=6 / sliced_threads=0 / nr=0 / decimate=1 / interlaced=0 / bluray_compat=0 / constrained_intra=0 / bframes=3 / b_pyramid=2 / b_adapt=1 / b_bias=0 / direct=3 / weightb=1 / open_gop=0 / weightp=2 / keyint=250 / keyint_min=23 / scenecut=40 / intra_refresh=0 / rc_lookahead=40 / rc=2pass / mbtree=1 / bitrate=1978 / ratetol=1.0 / qcomp=0.60 / qpmin=0 / qpmax=69 / qpstep=4 / cplxblur=20.0 / qblur=0.5 / ip_ratio=1.40 / aq=1:1.00

Audio
ID: 2
Format: AC-3
Format/Info: Audio Coding 3
Mode extension: CM (complete main)
Codec ID: A_AC3
Duration: 1h 35mn
Bit rate mode: Constant
Bit rate: 192 Kbps
Channel(s): 2 channels
Channel positions: Front: L R
Sampling rate: 48.0 KHz
Bit depth: 16 bits
Compression mode: Lossy
Stream size: 132 MiB (9%)















Смоки и бандит 2 / Smokey and the Bandit II


Перевод: Профессиональный (многоголосый, закадровый), cубтитры: отсутствуют
Формат: DVDRip-AVC, MKV, H.264, AC3
Страна: США
Режиссер: Хэл Нидэм
Жанр: боевик, мелодрама, комедия, криминал
Продолжительность: 01:36:28
Год выпуска: 1980

В ролях: Берт Рейнолдс, Джеки Глисон, Джерри Рид, Дом Де Луиз, Сэлли Филд, Пол Уильямс

Описание: Известные по первой части Бандит и Снеговик на этот раз за 400 тысяч долларов везут из Флориды в Техас беременную слониху. А помешать им хочет тот же злопамятный шериф. Он позвал на помощь всех своих родственников полицейских. Но это ему не помогло, так как Снеговик вызвал на подмогу водителей - дальнобойщиков



Видео: 928 x 496 (1:87:1), 25.000 fps, AVC (х264) High@L4.1, ~ 1964 Kbps, 0.171 bit/pixel
Аудио: 48 kHz, AC3 Dolby Digital, 2/0 (L,R) ch, ~192 kbps


Рип: jeenart

General
Unique ID: 192155106406102426065266700131374737068 (0x908FBA32EAF0045C96A2068FCCC826AC)
Complete name: F:\Мои релизы\Все релизы 10\smoki_i_badit_[tfile.ru]\smoki_i_badit_2_[tfile.ru].mkv
Format: Matroska
File size: 1.45 GiB
Duration: 1h 36mn
Overall bit rate: 2 157 Kbps
Encoded date: UTC 2011-11-24 20:20:00
Writing application: mkvmerge v4.6.0 ('Still Crazy After All These Years') сборка от Apr1 2011 21:01:49
Writing library: libebml v1.2.0 + libmatroska v1.1.0

Video
ID: 1
Format: AVC
Format/Info: Advanced Video Codec
Format profile: High@L4.1
Format settings, CABAC: Yes
Format settings, ReFrames: 4 frames
Codec ID: V_MPEG4/ISO/AVC
Duration: 1h 36mn
Bit rate: 1 964 Kbps
Width: 928 pixels
Height: 496 pixels
Display aspect ratio: 1.871
Frame rate: 25.000 fps
Color space: YUV
Chroma subsampling: 4:2:0
Bit depth: 8 bits
Scan type: Progressive
Bits/(Pixel*Frame): 0.171
Stream size: 1.30 GiB (89%)
Writing library: x264 core 115 r1937 aa21558
Encoding settings: cabac=1 / ref=3 / deblock=1:-1:-1 / analyse=0x3:0x113 / me=hex / subme=7 / psy=1 / psy_rd=1.00:0.10 / mixed_ref=1 / me_range=16 / chroma_me=1 / trellis=1 / 8x8dct=1 / cqm=0 / deadzone=21,11 / fast_pskip=1 / chroma_qp_offset=-3 / threads=6 / sliced_threads=0 / nr=0 / decimate=1 / interlaced=0 / bluray_compat=0 / constrained_intra=0 / bframes=3 / b_pyramid=2 / b_adapt=1 / b_bias=0 / direct=3 / weightb=1 / open_gop=0 / weightp=2 / keyint=250 / keyint_min=25 / scenecut=40 / intra_refresh=0 / rc_lookahead=40 / rc=2pass / mbtree=1 / bitrate=1964 / ratetol=1.0 / qcomp=0.60 / qpmin=0 / qpmax=69 / qpstep=4 / cplxblur=20.0 / qblur=0.5 / ip_ratio=1.40 / aq=1:1.00

Audio
ID: 2
Format: AC-3
Format/Info: Audio Coding 3
Mode extension: CM (complete main)
Codec ID: A_AC3
Duration: 1h 36mn
Bit rate mode: Constant
Bit rate: 192 Kbps
Channel(s): 2 channels
Channel positions: Front: L R
Sampling rate: 48.0 KHz
Bit depth: 16 bits
Compression mode: Lossy
Stream size: 132 MiB (9%)















Смоки и Бандит 3 / Smokey and the Bandit Part 3


Перевод: Профессиональный (многоголосый, закадровый), cубтитры: отсутствуют
Формат: DVDRip-AVC, MKV, H.264, AC3
Страна: США
Режиссер: Дик Лоури
Жанр: боевик, мелодрама, комедия, криминал
Продолжительность: 01:21:23
Год выпуска: 1983

В ролях: Джеки Глисон, Джерри Рид, Коллин Кэмп, Пол Уильямс, Берт Рейнолдс, Майк Хенри

Описание: Шериф Бьюфорд Джастис уходит на пенсию, но заскучав, он возвращается и на спор с братьями Бердетами берется провезти через несколько штатов чучело рыбы за определенное время. Выиграет - получает 250000 долларов, проиграет - отдает свой значок. Одновременно братья нанимают Снеговика, чтобы он переодевшись в Бандита, помешал шерифу успеть вовремя...



Видео: 912 x 376 (2:40:1), 25.000 fps, AVC (х264) High@L4.1, ~ 2363 Kbps, 0.276 bit/pixel
Аудио: 48 kHz, AC3 Dolby Digital, 2/0 (L,R) ch, ~192 kbps


Рип: jeenart

General
Unique ID: 188713194173894751931245007422684702474 (0x8DF8D6D2EE40B6DD8505A0E54A80A70A)
Complete name: F:\Мои релизы\Все релизы 10\smoki_i_badit_[tfile.ru]\smoki_i_badit_3_[tfile.ru].mkv
Format: Matroska
File size: 1.45 GiB
Duration: 1h 21mn
Overall bit rate: 2 557 Kbps
Encoded date: UTC 2011-11-22 10:24:27
Writing application: mkvmerge v4.6.0 ('Still Crazy After All These Years') сборка от Apr1 2011 21:01:49
Writing library: libebml v1.2.0 + libmatroska v1.1.0

Video
ID: 1
Format: AVC
Format/Info: Advanced Video Codec
Format profile: High@L4.1
Format settings, CABAC: Yes
Format settings, ReFrames: 4 frames
Codec ID: V_MPEG4/ISO/AVC
Duration: 1h 21mn
Bit rate: 2 363 Kbps
Width: 912 pixels
Height: 376 pixels
Display aspect ratio: 2.40:1
Frame rate: 25.000 fps
Color space: YUV
Chroma subsampling: 4:2:0
Bit depth: 8 bits
Scan type: Progressive
Bits/(Pixel*Frame): 0.276
Stream size: 1.32 GiB (91%)
Writing library: x264 core 115 r1937 aa21558
Encoding settings: cabac=1 / ref=3 / deblock=1:-1:-1 / analyse=0x3:0x113 / me=hex / subme=7 / psy=1 / psy_rd=1.00:0.10 / mixed_ref=1 / me_range=16 / chroma_me=1 / trellis=1 / 8x8dct=1 / cqm=0 / deadzone=21,11 / fast_pskip=1 / chroma_qp_offset=-3 / threads=6 / sliced_threads=0 / nr=0 / decimate=1 / interlaced=0 / bluray_compat=0 / constrained_intra=0 / bframes=3 / b_pyramid=2 / b_adapt=1 / b_bias=0 / direct=3 / weightb=1 / open_gop=0 / weightp=2 / keyint=250 / keyint_min=25 / scenecut=40 / intra_refresh=0 / rc_lookahead=40 / rc=2pass / mbtree=1 / bitrate=2363 / ratetol=1.0 / qcomp=0.60 / qpmin=0 / qpmax=69 / qpstep=4 / cplxblur=20.0 / qblur=0.5 / ip_ratio=1.40 / aq=1:1.00

Audio
ID: 2
Format: AC-3
Format/Info: Audio Coding 3
Mode extension: CM (complete main)
Codec ID: A_AC3
Duration: 1h 21mn
Bit rate mode: Constant
Bit rate: 192 Kbps
Channel(s): 2 channels
Channel positions: Front: L R
Sampling rate: 48.0 KHz
Bit depth: 16 bits
Compression mode: Lossy
Stream size: 112 MiB (8%)













Поделиться:




реклама партнёра


Вернуться к началу
 Профиль Отправить личное сообщение  
 
   Похожие торренты   Автор   Торрент   Размер 
В этой теме нет новых непрочитанных сообщений. Победители и грешники / Qi mou miao ji: Wu fu xing [боевик, комедия, криминал, 1983] HDRip, Dvo

salma3

20 | 1

1.46 ГБ

В этой теме нет новых непрочитанных сообщений. Два в одном: полицейский и бандит / Policegiri [Боевик, 2013] DVDRip, Avo

salma3

57 | 14

1.39 ГБ

В этой теме нет новых непрочитанных сообщений. Сквозь строй / The Gauntlet [боевик, триллер, драма, криминал, 1977] HDRip, Mvo

salma3

22 | 2

1.46 ГБ

В этой теме нет новых непрочитанных сообщений. Класс / Class [драма, мелодрама, комедия, 1983] HDRip, Dvo

salma3

32 | 3

1.46 ГБ

В этой теме нет новых непрочитанных сообщений. Частная школа / Private School [мелодрама, комедия, 1983] HDRip, Dvo

salma3

81 | 4

1.45 ГБ

В этой теме нет новых непрочитанных сообщений. Прости меня, мама (Бандит) [1-4 из 4] [ Драма,мелодрама, 2014] WEBRip

iopuk60

0 | 2

2.17 ГБ

В этой теме нет новых непрочитанных сообщений. Победители и грешники / Winners & Sinners / Five Lucky Stars / Qi mou miao ji: Wu fu xing [боевик, комедия, криминал, 1983] BDRip, Mvo+Dvo

salma3

24 | 6

2.18 ГБ


Начать новую тему Ответить на тему  [ 1 сообщение ] 




Для Мосгорсуда, Роскомнадзора и рекламодателей:: mosgorsud-torrent[собачка]yandex.ru