Торрент файл
скачать торрент магнет ссылка Добавлен: 10 янв 2012, 18:56
Размер: 6.65 ГБ
Сидеров: 139
Личеров: 18
Автор

СообщениеДобавлено: 10 янв 2012, 18:56 

Не в сети
Супермодератор
Аватара пользователя
Дата регистрации:
11 апр 2010, 18:10
Спасибо: 5801 / 7
Сообщения: 56779
Сумерки / Twilight


Слоган: «Запретный плод сладок»
Перевод: Профессиональный (полное дублирование)
Субтитры: Русские, Украинские, Английские
Формат: HDRip-AVC, MKV, H.264, AC3

Страна: США

Режиссер: Кэтрин Хардвик
Жанр: фэнтези, триллер, драма, мелодрама
Продолжительность: 02:01:47

Год выпуска: 2008

В ролях: Кристен Стюарт, Роберт Паттинсон, Билли Бурк, Эшли Грин, Никки Рид, Джексон Рэтбоун, Келлан Латс, Питер Фасинелли, Кэм Жиганде, Тэйлор Лотнер

Описание: Семнадцатилетняя девушка Бэлла переезжает к отцу в небольшой городок Форкс. Она влюбляется в загадочного одноклассника, который, как оказалось, происходит из семьи вампиров, отказавшихся от нападений на людей. Влюбиться в вампира. Это страшно? Это романтично, это прекрасно и мучительно, но это не может кончиться добром, особенно в вечном противостоянии вампирских кланов, где малейшее отличие от окружающих уже превращает вас в врага...



Видео: 1056x440 (2:40:1), 23.976 fps, AVC (х264) High@L4.1, ~1873 Kbps, 0.168 bit/pixel

Аудио#1: Русский: 48 kHz, AC3 Dolby Digital, 3/2 (L,C,R,l,r) + LFE, 6 ch, ~448 kbps avg [Профессиональный (полное дублирование)]
Аудио#2: Английский: 48 kHz, AC3 Dolby Digital, 3/2 (L,R), 2 ch, ~192 kbps avg [Оригинал]

D:\Sumerki.Trilogiya.D1.HDRip-AVC\Sumerki.2008.Dc1.HDRip-AVC.mkv
General
Complete name : D:\Sumerki.Trilogiya.D1.HDRip-AVC\Sumerki.2008.Dc1.HDRip-AVC.mkv
Format : Matroska
File size : 2.18 GiB
Duration : 2h 1mn
Overall bit rate : 2 564 Kbps
Encoded date : UTC 2011-11-22 18:20:06
Writing application : mkvmerge v5.0.1 ('Es ist Sommer') built on Oct9 2011 11:55:43
Writing library : libebml v1.2.2 + libmatroska v1.3.0
Video #1
ID : 1
Format : AVC
Format/Info : Advanced Video Codec
Format profile : High@L4.1
Format settings, CABAC : Yes
Format settings, ReFrames : 12 frames
Muxing mode : Container profile=Unknown@4.1
Codec ID : V_MPEG4/ISO/AVC
Duration : 2h 1mn
Bit rate : 1 873 Kbps
Nominal bit rate : 1 921 Kbps
Width : 1 056 pixels
Height : 440 pixels
Display aspect ratio : 2.40:1
Frame rate mode : Variable
Frame rate : 23.976 fps
Resolution : 8 bits
Colorimetry : 4:2:0
Scan type : Progressive
Bits/(Pixel*Frame) : 0.168
Stream size : 1.59 GiB (73%)
Title : Sumerki.2008.Dc1.HDRip-AVC.mkv
Writing library : x264 core 116 r2019M 9cc407d
Encoding settings : cabac=1 / ref=13 / deblock=1:-2:-2 / analyse=0x3:0x133 / me=umh / subme=10 / psy=1 / psy_rd=1.00:0.20 / mixed_ref=1 / me_range=32 / chroma_me=1 / trellis=2 / 8x8dct=1 / cqm=0 / deadzone=21,11 / fast_pskip=1 / chroma_qp_offset=-3 / threads=8 / sliced_threads=0 / nr=0 / decimate=1 / interlaced=0 / bluray_compat=0 / constrained_intra=0 / bframes=3 / b_pyramid=1 / b_adapt=2 / b_bias=0 / direct=3 / weightb=1 / open_gop=0 / weightp=2 / keyint=230 / keyint_min=23 / scenecut=40 / intra_refresh=0 / rc_lookahead=40 / rc=2pass / mbtree=1 / bitrate=1921 / ratetol=1.0 / qcomp=0.60 / qpmin=10 / qpmax=51 / qpstep=4 / cplxblur=20.0 / qblur=0.5 / ip_ratio=1.40 / aq=1:1.00
Audio #2
ID : 2
Format : AC-3
Format/Info : Audio Coding 3
Format_Settings_ModeExtension : CM (complete main)
Codec ID : A_AC3
Duration : 2h 1mn
Bit rate mode : Constant
Bit rate : 448 Kbps
Channel(s) : 6 channels
Channel positions : Front: L C R, Side: L R, LFE
Sampling rate : 48.0 KHz
Stream size : 390 MiB (17%)
Title : Дубляж, BluRay
Language : Russian
Audio #3
ID : 3
Format : AC-3
Format/Info : Audio Coding 3
Format_Settings_ModeExtension : CM (complete main)
Codec ID : A_AC3
Duration : 2h 1mn
Bit rate mode : Constant
Bit rate : 192 Kbps
Channel(s) : 2 channels
Channel positions : Front: L R
Sampling rate : 48.0 KHz
Stream size : 167 MiB (7%)
Title : English
Text #4
ID : 4
Format : UTF-8
Codec ID : S_TEXT/UTF8
Codec ID/Info : UTF-8 Plain Text
Language : Russian
Text #5
ID : 5
Format : UTF-8
Codec ID : S_TEXT/UTF8
Codec ID/Info : UTF-8 Plain Text
Language : Ukrainian
Text #6
ID : 6
Format : UTF-8
Codec ID : S_TEXT/UTF8
Codec ID/Info : UTF-8 Plain Text




















Сумерки. Сага. Новолуние / The Twilight Saga: New Moon


Слоган: «It will be as if I'd never existed.»
Перевод: Профессиональный (полное дублирование)
Субтитры: Русские, Украинские, Английские
Формат: HDRip-AVC, MKV, H.264, AC3

Страна: США

Режиссер: Крис Вайц
Жанр: ужасы, триллер, фэнтези, мелодрама, драма
Продолжительность: 02:10:35

Год выпуска: 2009

В ролях: Кристен Стюарт, Роберт Паттинсон, Тэйлор Лотнер, Билли Бёрк, Анна Кендрик, Майкл Уэлш, Джастин Чон, Кристиан Серратос, Эшли Грин, Джексон Рэтбоун, Кэм Жиганде

Описание: Влюбиться в вампира — страшно и романтично. Но потерять любимого, решившего ценой разрыва спасти свою девушку от роли пешки в вечном противостоянии кланов «ночных охотников», — это просто невыносимо. Белла Свон мучительно переживает исчезновение Эдварда и безуспешно ищет забвения в дружбе с мальчишкой-индейцем Джейкобом Блэком. Она даже не подозревает, что её лучший друг — порождение ещё одного «народа Тьмы». Народа, куда более жестокого и опасного, чем аристократы-вампиры.



Видео: 1056x440 (2:40:1), 23.976 fps, AVC (х264) High@L4.1, ~1819 Kbps, 0.163 bit/pixel

Аудио#1: Русский: 48 kHz, AC3 Dolby Digital, 3/2 (L,C,R,l,r) + LFE, 6 ch, ~448 kbps avg [Профессиональный (полное дублирование)]
Аудио#2: Английский: 48 kHz, AC3 Dolby Digital, 3/2 (L,R), 2 ch, ~192 kbps avg [Оригинал]

D:\Sumerki.Trilogiya.D1.HDRip-AVC\Sumerki.Saga.Novolunie.2009.Dc1.HDRip-AVC.mkv
General
Complete name : D:\Sumerki.Trilogiya.D1.HDRip-AVC\Sumerki.Saga.Novolunie.2009.Dc1.HDRip-AVC.mkv
Format : Matroska
File size : 2.29 GiB
Duration : 2h 10mn
Overall bit rate : 2 508 Kbps
Encoded date : UTC 2011-11-23 19:06:16
Writing application : mkvmerge v5.0.1 ('Es ist Sommer') built on Oct9 2011 11:55:43
Writing library : libebml v1.2.2 + libmatroska v1.3.0
Video #1
ID : 1
Format : AVC
Format/Info : Advanced Video Codec
Format profile : High@L4.1
Format settings, CABAC : Yes
Format settings, ReFrames : 12 frames
Muxing mode : Container profile=Unknown@4.1
Codec ID : V_MPEG4/ISO/AVC
Duration : 2h 10mn
Bit rate : 1 819 Kbps
Nominal bit rate : 1 869 Kbps
Width : 1 056 pixels
Height : 440 pixels
Display aspect ratio : 2.40:1
Frame rate mode : Variable
Frame rate : 23.976 fps
Resolution : 8 bits
Colorimetry : 4:2:0
Scan type : Progressive
Bits/(Pixel*Frame) : 0.163
Stream size : 1.66 GiB (72%)
Title : Sumerki.Saga.Novolunie.2009.Dc1.HDRip-AVC.mkv
Writing library : x264 core 116 r2019M 9cc407d
Encoding settings : cabac=1 / ref=13 / deblock=1:-2:-2 / analyse=0x3:0x133 / me=umh / subme=10 / psy=1 / psy_rd=1.00:0.20 / mixed_ref=1 / me_range=32 / chroma_me=1 / trellis=2 / 8x8dct=1 / cqm=0 / deadzone=21,11 / fast_pskip=1 / chroma_qp_offset=-3 / threads=8 / sliced_threads=0 / nr=0 / decimate=1 / interlaced=0 / bluray_compat=0 / constrained_intra=0 / bframes=3 / b_pyramid=1 / b_adapt=2 / b_bias=0 / direct=3 / weightb=1 / open_gop=0 / weightp=2 / keyint=230 / keyint_min=23 / scenecut=40 / intra_refresh=0 / rc_lookahead=40 / rc=2pass / mbtree=1 / bitrate=1869 / ratetol=1.0 / qcomp=0.60 / qpmin=10 / qpmax=51 / qpstep=4 / cplxblur=20.0 / qblur=0.5 / ip_ratio=1.40 / aq=1:1.00
Audio #2
ID : 2
Format : AC-3
Format/Info : Audio Coding 3
Format_Settings_ModeExtension : CM (complete main)
Codec ID : A_AC3
Duration : 2h 10mn
Bit rate mode : Constant
Bit rate : 448 Kbps
Channel(s) : 6 channels
Channel positions : Front: L C R, Side: L R, LFE
Sampling rate : 48.0 KHz
Stream size : 419 MiB (18%)
Title : Дубляж [R5]
Language : Russian
Audio #3
ID : 3
Format : AC-3
Format/Info : Audio Coding 3
Format_Settings_ModeExtension : CM (complete main)
Codec ID : A_AC3
Duration : 2h 10mn
Bit rate mode : Constant
Bit rate : 192 Kbps
Channel(s) : 2 channels
Channel positions : Front: L R
Sampling rate : 48.0 KHz
Stream size : 179 MiB (8%)
Title : Оригинал
Text #4
ID : 4
Format : UTF-8
Codec ID : S_TEXT/UTF8
Codec ID/Info : UTF-8 Plain Text
Language : Russian
Text #5
ID : 5
Format : UTF-8
Codec ID : S_TEXT/UTF8
Codec ID/Info : UTF-8 Plain Text
Language : Ukrainian
Text #6
ID : 6
Format : UTF-8
Codec ID : S_TEXT/UTF8
Codec ID/Info : UTF-8 Plain Text




















Сумерки. Сага. Затмение / The Twilight Saga: Eclipse


Слоган: «Все начинается с выбора...»
Перевод: Профессиональный (полное дублирование)
Субтитры: Русские, Английские
Формат: HDRip-AVC, MKV, H.264, AC3

Страна: США

Режиссер: Дэвид Слэйд
Жанр: ужасы, триллер, фэнтези, мелодрама
Продолжительность: 02:03:57

Год выпуска: 2010

В ролях: Кристен Стюарт, Роберт Паттинсон, Тэйлор Лотнер, Эшли Грин, Келлан Латс, Питер Фачинелли, Брайс Даллас Ховард, Никки Рид, Ксавьер Сэмюэл, Билли Бёрк

Описание: Сиэтл охвачен чередой таинственных убийств, а обуреваемая жаждой мести вампирша продолжает поиски Беллы, снова оказавшейся в смертельной опасности. Кроме того, находясь в эпицентре всех событий, Белла вынуждена делать выбор между любовью к Эдварду и дружбой с Джейкобом, зная что ее решение может послужить толчком к возобновлению давнего противостояния между вампирами и оборотнями.
Помимо всего прочего, ей предстоит принять еще одно важное решение: жизнь или смерть, ведь окончание средней школы уже не за горами.




Видео: 1056x440 (2:40:1), 23.976 fps, AVC (х264) High@L4.1, ~1825 Kbps, 0.164 bit/pixel

Аудио#1: Русский: 48 kHz, AC3 Dolby Digital, 3/2 (L,C,R,l,r) + LFE, 6 ch, ~448 kbps avg [Профессиональный (полное дублирование)]
Аудио#2: Английский: 48 kHz, AC3 Dolby Digital, 3/2 (L,R), 2 ch, ~192 kbps avg [Оригинал]

D:\Sumerki.Trilogiya.D1.HDRip-AVC\Sumerki.Saga.Zatmenie.2010.Dc1.HDRip-AVC.mkv
General
Complete name : D:\Sumerki.Trilogiya.D1.HDRip-AVC\Sumerki.Saga.Zatmenie.2010.Dc1.HDRip-AVC.mkv
Format : Matroska
File size : 2.18 GiB
Duration : 2h 3mn
Overall bit rate : 2 515 Kbps
Movie name :Sumerki.Trilogiya.D1.HDRip-AVC\Sumerki.Saga.Zatmenie.2010.Dc1.HDRip-AVC.mkv
Encoded date : UTC 2011-11-24 01:00:33
Writing application : mkvmerge v5.0.1 ('Es ist Sommer') built on Oct9 2011 11:55:43
Writing library : libebml v1.2.2 + libmatroska v1.3.0
Video #1
ID : 1
Format : AVC
Format/Info : Advanced Video Codec
Format profile : High@L4.1
Format settings, CABAC : Yes
Format settings, ReFrames : 12 frames
Muxing mode : Container profile=Unknown@4.1
Codec ID : V_MPEG4/ISO/AVC
Duration : 2h 3mn
Bit rate : 1 825 Kbps
Nominal bit rate : 1 877 Kbps
Width : 1 056 pixels
Height : 440 pixels
Display aspect ratio : 2.40:1
Frame rate mode : Variable
Frame rate : 23.976 fps
Resolution : 8 bits
Colorimetry : 4:2:0
Scan type : Progressive
Bits/(Pixel*Frame) : 0.164
Stream size : 1.58 GiB (73%)
Title : Sumerki.Trilogiya.D1.HDRip-AVC\Sumerki.Saga.Zatmenie.2010.Dc1.HDRip-AVC.mkv
Writing library : x264 core 116 r2019M 9cc407d
Encoding settings : cabac=1 / ref=13 / deblock=1:-2:-2 / analyse=0x3:0x133 / me=umh / subme=10 / psy=1 / psy_rd=1.00:0.20 / mixed_ref=1 / me_range=32 / chroma_me=1 / trellis=2 / 8x8dct=1 / cqm=0 / deadzone=21,11 / fast_pskip=1 / chroma_qp_offset=-3 / threads=8 / sliced_threads=0 / nr=0 / decimate=1 / interlaced=0 / bluray_compat=0 / constrained_intra=0 / bframes=3 / b_pyramid=1 / b_adapt=2 / b_bias=0 / direct=3 / weightb=1 / open_gop=0 / weightp=2 / keyint=230 / keyint_min=23 / scenecut=40 / intra_refresh=0 / rc_lookahead=40 / rc=2pass / mbtree=1 / bitrate=1877 / ratetol=1.0 / qcomp=0.60 / qpmin=10 / qpmax=51 / qpstep=4 / cplxblur=20.0 / qblur=0.5 / ip_ratio=1.40 / aq=1:1.00
Audio #2
ID : 2
Format : AC-3
Format/Info : Audio Coding 3
Format_Settings_ModeExtension : CM (complete main)
Codec ID : A_AC3
Duration : 2h 3mn
Bit rate mode : Constant
Bit rate : 448 Kbps
Channel(s) : 6 channels
Channel positions : Front: L C R, Side: L R, LFE
Sampling rate : 48.0 KHz
Stream size : 397 MiB (18%)
Title : Rus Dub
Language : Russian
Audio #3
ID : 3
Format : AC-3
Format/Info : Audio Coding 3
Format_Settings_ModeExtension : CM (complete main)
Codec ID : A_AC3
Duration : 2h 3mn
Bit rate mode : Constant
Bit rate : 192 Kbps
Channel(s) : 2 channels
Channel positions : Front: L R
Sampling rate : 48.0 KHz
Stream size : 170 MiB (8%)
Title : Original
Text #4
ID : 4
Format : UTF-8
Codec ID : S_TEXT/UTF8
Codec ID/Info : UTF-8 Plain Text
Language : Russian
Text #5
ID : 5
Format : UTF-8
Codec ID : S_TEXT/UTF8
Codec ID/Info : UTF-8 Plain Text
















Поделиться:




реклама партнёра


Вернуться к началу
 Профиль Отправить личное сообщение  
 
   Похожие торренты   Автор   Торрент   Размер 
В этой теме нет новых непрочитанных сообщений. Сумеречная зона / Twilight Zone: The Movie [ужасы, фантастика, фэнтези, триллер, 1983] HDRip, Dvo

salma3

34 | 4

1.45 ГБ

В этой теме нет новых непрочитанных сообщений. Ганнибал / Hannibal [03х01-13 из 13] (Гильермо Наварро, Майкл Раймер, Дэвид Слэйд) [Детектив, триллер, криминал, драма, 2015] WEB-DLRip [NewStudio]

Dracon

127 | 50

7.65 ГБ

В этой теме нет новых непрочитанных сообщений. Ганнибал / Hannibal [Season 3 episode 1-13] (Гильермо Наварро, Майкл Раймер, Дэвид Слэйд) [Детектив, триллер, криминал, драма, 2015] HDTVRip [AlexFilm]

Dracon

312 | 252

7.19 ГБ

В этой теме нет новых непрочитанных сообщений. Ганнибал / Hannibal [Season 3, Episodes 1-13 of 13] (Гильермо Наварро, Майкл Раймер, Дэвид Слэйд) [Детектив, триллер, криминал, драма, 2015] WEB-DL 720p [Jaskier]

Dracon

93 | 97

18.2 ГБ

В этой теме нет новых непрочитанных сообщений. Ганнибал / Hannibal [01-03х01-27 из 39] (Гильермо Наварро, Майкл Раймер, Дэвид Слэйд) [Детектив, триллер, криминал, драма, 2013-2015] WEB-DLRip [AlexFilm]

Dracon

37 | 18

13.67 ГБ

В этой теме нет новых непрочитанных сообщений. Ганнибал / Hannibal [Season 3, Episodes 1-13 of 13] (Гильермо Наварро, Майкл Раймер, Дэвид Слэйд) [Детектив, триллер, криминал, драма, 2015] WEB-DL 720p [NewStudio]

Dracon

7 | 6

18.62 ГБ

В этой теме нет новых непрочитанных сообщений. Ганнибал / Hannibal [Season 3 episode 1-11,13] (Гильермо Наварро, Майкл Раймер, Дэвид Слэйд) [Детектив, триллер, криминал, драма, 2015] HDTVRip [Sony SciFi]

Dracon

12 | 22

6.65 ГБ


Начать новую тему Ответить на тему  [ 1 сообщение ] 




Для Мосгорсуда, Роскомнадзора и рекламодателей:: mosgorsud-torrent[собачка]yandex.ru