Торрент файл
скачать торрент магнет ссылка Добавлен: 10 янв 2012, 18:53
Размер: 13.45 ГБ
Сидеров: 12
Личеров: 24
Автор

СообщениеДобавлено: 10 янв 2012, 18:53 

Не в сети
Супермодератор
Аватара пользователя
Дата регистрации:
11 апр 2010, 18:10
Спасибо: 5801 / 7
Сообщения: 56779
[b]Крепкий орешек / Die Hard[/b]


Перевод: Профессиональный (полное дублирование)
Субтитры: отсутствуют
Формат: HDRip-AVC, MKV, H.264, AC3

Страна:США

Режиссер: Джон МакТирнан
Жанр: боевик, триллер
Продолжительность: 02:12:10
Год выпуска: 1988

В ролях: Брюс Уиллис, Алан Рикман, Бонни Беделиа, Реджинальд ВелДжонсон, Пол Глисон, Уильям Этертон, Харт Бокнер, Джеймс Шигета, Александр Годунов, Бруно Доуон.

Описание: В суперсовременном небоскребе Лос-Анджелеса полицейский Джон Макклейн ведет смертельную схватку с бандой политических террористов, взявших в заложники два десятка человек, в число которых попадает и его жена. Началось все с того, что парень приехал в город к жене, оказался на рождественском приеме, а кончилось настоящей войной…



Видео: 1024x432 (2.35:1), 23.976 fps, AVC MPEG-4 High@L4.1, ~1866 kbps avg, 0.176 bit/pixel
Аудио #1: русский48 kHz, AC3 Dolby Digital, 3/2 (L,C,R,l,r) + LFE ch, ~384 kbps avg [Профессиональный (полное дублирование)]
Аудио #2: русский48 kHz, AC3 Dolby Digital, 3/2 (L,C,R,l,r) + LFE ch, ~448 kbps avg [Профессиональный (многоголосый Киномания) отдельно]
Аудио #3: русский48 kHz, AC3 Dolby Digital, 3/2 (L,C,R,l,r) + LFE ch, ~448 kbps avg [Профессиональный (многоголосый ОРТ) отдельно]
Аудио #4: русский48 kHz, AC3 Dolby Digital, 3/2 (L,C,R,l,r) + LFE ch, ~448 kbps avg [Авторский (А.Гаврилов) отдельно]
Аудио #5: английский48 kHz, AC3 Dolby Digital, 3/2 (L,C,R,l,r) + LFE ch, ~448 kbps avg [оригинал отдельно]

Релиз группы




General
Unique ID: 237303254015580247224798859530246615460 (0xB286F1BC64DA64AB84ED84A2BDA8F1A4)
Complete name: D:\Мои рипы\Die Hard Quadrology\Die Hard\Die.Hard.1988.D.HDRip.mkv
Format: Matroska
Format version: Version 2
File size: 2.07 GiB
Duration: 2h 12mn
Overall bit rate: 2 244 Kbps
Movie name: Die.Hard.1988.D.HDRip.S.I.D
Encoded date: UTC 2011-12-17 22:20:18
Writing application: mkvmerge v2.9.8 ('C'est le bon') built on Aug 13 2009 12:49:06
Writing library: libebml v0.7.7 + libmatroska v0.8.1

Video
ID: 1
Format: AVC
Format/Info: Advanced Video Codec
Format profile: High@L4.1
Format settings, CABAC: Yes
Format settings, ReFrames: 8 frames
Codec ID: V_MPEG4/ISO/AVC
Duration: 2h 12mn
Bit rate: 1 866 Kbps
Width: 1 024 pixels
Height: 432 pixels
Display aspect ratio: 2.35:1
Frame rate: 23.976 fps
Color space: YUV
Chroma subsampling: 4:2:0
Bit depth: 8 bits
Scan type: Progressive
Bits/(Pixel*Frame): 0.176
Stream size: 1.68 GiB (81%)
Title: RG Films Tfile
Writing library: x264 core 119 r2106 07efeb4
Encoding settings: cabac=1 / ref=8 / deblock=1:-1:-1 / analyse=0x3:0x111 / me=umh / subme=0 / psy=1 / psy_rd=1.00:0.10 / mixed_ref=1 / me_range=16 / chroma_me=1 / trellis=2 / 8x8dct=1 / cqm=0 / deadzone=21,11 / fast_pskip=0 / chroma_qp_offset=-1 / threads=6 / sliced_threads=0 / nr=0 / decimate=1 / interlaced=0 / bluray_compat=0 / constrained_intra=0 / bframes=8 / b_pyramid=2 / b_adapt=2 / b_bias=0 / direct=1 / weightb=1 / open_gop=0 / weightp=2 / keyint=250 / keyint_min=23 / scenecut=40 / intra_refresh=0 / rc_lookahead=40 / rc=abr / mbtree=1 / bitrate=1866 / ratetol=1.0 / qcomp=0.60 / qpmin=0 / qpmax=69 / qpstep=4 / ip_ratio=1.40 / aq=1:1.00
Language: English
Default: Yes
Forced: No

Audio
ID: 2
Format: AC-3
Format/Info: Audio Coding 3
Mode extension: CM (complete main)
Codec ID: A_AC3
Duration: 2h 12mn
Bit rate mode: Constant
Bit rate: 384 Kbps
Channel(s): 6 channels
Channel positions: Front: L C R, Side: L R, LFE
Sampling rate: 48.0 KHz
Bit depth: 16 bits
Compression mode: Lossy
Stream size: 363 MiB (17%)
Title: Дубляж
Language: Russian
Default: Yes
Forced: No










[b]Крепкий орешек 2 / Die Hard 2[/b]


Перевод: Профессиональный (полное дублирование)
Субтитры: отсутствуют
Формат: HDRip-AVC, MKV, H.264, AC3

Страна:США

Режиссер: Ренни Харлин
Жанр: боевик, триллер, криминал
Продолжительность: 02:03:21
Год выпуска: 1990

В ролях: Брюс Уиллис, Бонни Беделиа, Уильям Этертон, Реджинальд ВелДжонсон, Франко Неро, Уильям Сэдлер, Джон Эймос, Деннис Франц, Арт Эванс, Фред Долтон Томпсон.

Описание: В канун Рождества группа террористов захватила международный аэропорт итеперь удерживает тысячи путешествующих в качестве заложников. Террористы — банда отступников из первоклассно вооруженных коммандос, возглавляемых одержимым жестокостью офицером. Их цель — спасти наркобарона. Банда подготовлена ко всевозможным случайностям, за исключением одной — встречи с Джоном Макклейном. Брюс Уиллис возвращается в роли супергероя-полицейского, который сражается не только с террористами, но и с некомпетентным шефом полиции аэропорта, тупоголовым начальником антитеррористического подразделения и страшным снежным бураном.



Видео: 1024x432 (2.35:1), 23.976 fps, AVC MPEG-4 High@L4.1, ~2044 kbps avg, 0.193 bit/pixel
Аудио #1: русский48 kHz, AC3 Dolby Digital, 3/2 (L,C,R,l,r) + LFE ch, ~384 kbps avg [Профессиональный (полное дублирование)]
Аудио #2: русский48 kHz, AC3 Dolby Digital, 3/2 (L,C,R,l,r) + LFE ch, ~384 kbps avg [Профессиональный (многоголосый Киномания) отдельно]
Аудио #3: русский48 kHz, AC3 Dolby Digital, 3/2 (L,C,R,l,r) + LFE ch, ~448 kbps avg [Профессиональный (многоголосый ОРТ) отдельно]
Аудио #4: русский48 kHz, AC3 Dolby Digital, 3/2 (L,C,R,l,r) + LFE ch, ~448 kbps avg [Авторский (А.Гаврилов) отдельно]
Аудио #5: английский48 kHz, AC3 Dolby Digital, 3/2 (L,C,R,l,r) + LFE ch, ~448 kbps avg [оригинал отдельно]

Релиз группы




General
Unique ID: 249066786191287993909473291691572263660 (0xBB6084A6A54393D8B39654EC2F02FAEC)
Complete name: D:\Мои рипы\Die Hard Quadrology\Die Hard 2 Die Harder\Die.Hard.2.Die.Harder.1990.D.HDRip.mkv
Format: Matroska
Format version: Version 2
File size: 2.06 GiB
Duration: 2h 3mn
Overall bit rate: 2 394 Kbps
Movie name: Die.Hard.2.Die.Harder.1990.D.HDRip.S.I.D
Encoded date: UTC 2011-12-17 22:30:45
Writing application: mkvmerge v2.9.8 ('C'est le bon') built on Aug 13 2009 12:49:06
Writing library: libebml v0.7.7 + libmatroska v0.8.1

Video
ID: 1
Format: AVC
Format/Info: Advanced Video Codec
Format profile: High@L4.1
Format settings, CABAC: Yes
Format settings, ReFrames: 8 frames
Codec ID: V_MPEG4/ISO/AVC
Duration: 2h 3mn
Bit rate: 2 044 Kbps
Width: 1 024 pixels
Height: 432 pixels
Display aspect ratio: 2.35:1
Frame rate: 23.976 fps
Color space: YUV
Chroma subsampling: 4:2:0
Bit depth: 8 bits
Scan type: Progressive
Bits/(Pixel*Frame): 0.193
Stream size: 1.69 GiB (82%)
Title: RG Films Tfile
Writing library: x264 core 119 r2106 07efeb4
Encoding settings: cabac=1 / ref=8 / deblock=1:-1:-1 / analyse=0x3:0x111 / me=umh / subme=0 / psy=1 / psy_rd=1.00:0.10 / mixed_ref=1 / me_range=16 / chroma_me=1 / trellis=2 / 8x8dct=1 / cqm=0 / deadzone=21,11 / fast_pskip=0 / chroma_qp_offset=-1 / threads=6 / sliced_threads=0 / nr=0 / decimate=1 / interlaced=0 / bluray_compat=0 / constrained_intra=0 / bframes=8 / b_pyramid=2 / b_adapt=2 / b_bias=0 / direct=1 / weightb=1 / open_gop=0 / weightp=2 / keyint=250 / keyint_min=23 / scenecut=40 / intra_refresh=0 / rc_lookahead=40 / rc=abr / mbtree=1 / bitrate=2044 / ratetol=1.0 / qcomp=0.60 / qpmin=0 / qpmax=69 / qpstep=4 / ip_ratio=1.40 / aq=1:1.00
Language: English
Default: Yes
Forced: No

Audio
ID: 2
Format: AC-3
Format/Info: Audio Coding 3
Mode extension: CM (complete main)
Codec ID: A_AC3
Duration: 2h 3mn
Bit rate mode: Constant
Bit rate: 384 Kbps
Channel(s): 6 channels
Channel positions: Front: L C R, Side: L R, LFE
Sampling rate: 48.0 KHz
Bit depth: 16 bits
Compression mode: Lossy
Stream size: 339 MiB (16%)
Title: Дубляж
Language: Russian
Default: Yes
Forced: No










[b]Крепкий орешек 3: Возмездие / Die Hard: With a Vengeance[/b]


Перевод: Профессиональный (многоголосый, закадровый)
Субтитры: отсутствуют
Формат: HDRip-AVC, MKV, H.264, AC3

Страна:США

Режиссер: Джон МакТирнан
Жанр: боевик, триллер, криминал
Продолжительность: 02:08:32
Год выпуска: 1995

В ролях: Брюс Уиллис, Джереми Айронс, Сэмюэл Л. Джексон, Грэхэм Грин, Коллин Кэмп, Ларри Бриггман, Энтони Пек, Николас Уаймэн, Сэм Филлипс, Кевин Чамберлен, Шарон Вашингтон, Майкл Александер Джексон, Эдвин Ходж, Роберт Седжвик, Билл Крист, Энтони Томас, Гленн Херман.

Описание: На улицах Нью-Йорка офицер полиции Джон Макклейн видел все, что только возможно. На этот раз для того, чтобы отомстить Макклейну, террорист Саймон, виртуозно устраивающий взрывы, заставляет героя — полицейского играть в смертельную игру. Ставка — город Нью-Йорк. Макклейн вынужден метаться по городу, следуя телефонным указаниям Саймона, готового разнести пол — Нью-Йорка за малейшее отклонение от его требований.И в то время, как вся полиция города занята поисками террористов, преступники похищают золотой запас Национального банка США. У Макклейна бывали неудачные деньки за годы службы в полиции, но сегодня у него, похоже, будет исключительно скверный день…



Видео: 1024x432 (2.35:1), 23.976 fps, AVC MPEG-4 High@L4.1, ~1952 kbps avg, 0.184 bit/pixel
Аудио #1: русский48 kHz, AC3 Dolby Digital, 3/2 (L,C,R,l,r) + LFE ch, ~384 kbps avg [Профессиональный (многоголосый, закадровый ОРТ)]
Аудио #2: русский48 kHz, AC3 Dolby Digital, 3/2 (L,C,R,l,r) + LFE ch, ~448 kbps avg [Профессиональный (многоголосый Киномания) отдельно]
Аудио #3: русский48 kHz, AC3 Dolby Digital, 3/2 (L,C,R,l,r) + LFE ch, ~448 kbps avg [Авторский (А.Гаврилов) отдельно]
Аудио #4: английский48 kHz, AC3 Dolby Digital, 3/2 (L,C,R,l,r) + LFE ch, ~448 kbps avg [оригинал отдельно]

Релиз группы




General
Unique ID: 225291620615954072150785567751157818951 (0xA97D967C71E9351D98480F3C265BA647)
Complete name: D:\Мои рипы\Die Hard Quadrology\Die Hard 3 With A Vengeance\Die.Hard.3.With.A.Vengeance.1995.P.НDRip.mkv
Format: Matroska
Format version: Version 2
File size: 2.08 GiB
Duration: 2h 8mn
Overall bit rate: 2 322 Kbps
Movie name: Die.Hard.3.With.A.Vengeance.1995.P.НDRip.S.I.D
Encoded date: UTC 2011-12-17 22:37:30
Writing application: mkvmerge v2.9.8 ('C'est le bon') built on Aug 13 2009 12:49:06
Writing library: libebml v0.7.7 + libmatroska v0.8.1

Video
ID: 1
Format: AVC
Format/Info: Advanced Video Codec
Format profile: High@L4.1
Format settings, CABAC: Yes
Format settings, ReFrames: 8 frames
Codec ID: V_MPEG4/ISO/AVC
Duration: 2h 8mn
Bit rate: 1 952 Kbps
Width: 1 024 pixels
Height: 432 pixels
Display aspect ratio: 2.35:1
Frame rate: 23.976 fps
Color space: YUV
Chroma subsampling: 4:2:0
Bit depth: 8 bits
Scan type: Progressive
Bits/(Pixel*Frame): 0.184
Stream size: 1.70 GiB (81%)
Title: RG Films Tfile
Writing library: x264 core 119 r2106 07efeb4
Encoding settings: cabac=1 / ref=8 / deblock=1:-1:-1 / analyse=0x3:0x111 / me=umh / subme=0 / psy=1 / psy_rd=1.00:0.10 / mixed_ref=1 / me_range=16 / chroma_me=1 / trellis=2 / 8x8dct=1 / cqm=0 / deadzone=21,11 / fast_pskip=0 / chroma_qp_offset=-1 / threads=6 / sliced_threads=0 / nr=0 / decimate=1 / interlaced=0 / bluray_compat=0 / constrained_intra=0 / bframes=8 / b_pyramid=2 / b_adapt=2 / b_bias=0 / direct=1 / weightb=1 / open_gop=0 / weightp=2 / keyint=250 / keyint_min=23 / scenecut=40 / intra_refresh=0 / rc_lookahead=40 / rc=abr / mbtree=1 / bitrate=1952 / ratetol=1.0 / qcomp=0.60 / qpmin=0 / qpmax=69 / qpstep=4 / ip_ratio=1.40 / aq=1:1.00
Language: English
Default: Yes
Forced: No

Audio
ID: 2
Format: AC-3
Format/Info: Audio Coding 3
Mode extension: CM (complete main)
Codec ID: A_AC3
Duration: 2h 8mn
Bit rate mode: Constant
Bit rate: 384 Kbps
Channel(s): 6 channels
Channel positions: Front: L C R, Side: L R, LFE
Sampling rate: 48.0 KHz
Bit depth: 16 bits
Compression mode: Lossy
Stream size: 353 MiB (17%)
Title: Многоголосый
Language: Russian
Default: Yes
Forced: No










[b]Крепкий орешек 4.0 / Die Hard 4.0[/b]


Перевод: Профессиональный (полное дублирование)
Субтитры: отсутствуют
Формат: HDRip-AVC, MKV, H.264, AC3

Страна:США, Великобритания

Режиссер: Лен Уайзман
Жанр: боевик, триллер, криминал, приключения
Продолжительность: 02:08:43
Год выпуска: 2007

В ролях: Брюс Уиллис, Тимоти Олифэнт, Джастин Лонг, Мэгги Кью, Клифф Кертис, Джонатан Садовский, Эндрю Фридман, Кевин Смит, Йорго Константин, Кирилл Раффаелли, Крис Палермо, Мэри Элизабет Уинстэд, Санг Кенг, Желько Иванек, Кристина Чанг, Джэйк Макдоман, Розмари Ноуэр, Джералд Дауни, Аллен Мальдонадо, Крис Эллис.

Описание: Детектив Джон МакКлейн снова вдействии — на этот раз он противостоит новому поколению терроризма. События картины разворачиваются в сегодняшнем мире компьютеризации. Компьютерная инфраструктура нации, контролирующая все коммуникации, транспортные средства и власть, может быть полностью разрушена. Вдохновитель заговора просчитал все. Что он не учел, так это МакКлейна, полицейского старой закалки, который знает несколько способов разрушить планы террористов.



Видео: 1024x432 (2.35:1), 23.976 fps, AVC MPEG-4 High@L4.1, ~1948 kbps avg, 0.184 bit/pixel
Аудио #1: русский48 kHz, AC3 Dolby Digital, 3/2 (L,C,R,l,r) + LFE ch, ~384 kbps avg [Профессиональный (полное дублирование)]
Аудио #2: русский48 kHz, AC3 Dolby Digital, 3/2 (L,C,R,l,r) + LFE ch, ~448 kbps avg [Авторский (А.Гаврилов) отдельно]
Аудио #3: английский48 kHz, AC3 Dolby Digital, 3/2 (L,C,R,l,r) + LFE ch, ~448 kbps avg [оригинал отдельно]

Релиз группы

Рипы от: __


General
Unique ID: 203896568125581948189056275065372473542 (0x99650CF4D91B0384B8D1AAB85B90F8C6)
Complete name: D:\Мои рипы\Die Hard Quadrology\Die Hard 4 Live Free Or Die Hard\Die.Hard.4.Live.Free.Or.Die.Hard.2007.D.HDRip.mkv
Format: Matroska
Format version: Version 2
File size: 2.08 GiB
Duration: 2h 8mn
Overall bit rate: 2 312 Kbps
Movie name: Die.Hard.4.Live.Free.Or.Die.Hard.2007.D.HDRip.S.I.D
Encoded date: UTC 2011-12-18 00:49:47
Writing application: mkvmerge v2.9.8 ('C'est le bon') built on Aug 13 2009 12:49:06
Writing library: libebml v0.7.7 + libmatroska v0.8.1

Video
ID: 1
Format: AVC
Format/Info: Advanced Video Codec
Format profile: High@L4.1
Format settings, CABAC: Yes
Format settings, ReFrames: 8 frames
Codec ID: V_MPEG4/ISO/AVC
Duration: 2h 8mn
Bit rate: 1 948 Kbps
Width: 1 024 pixels
Height: 432 pixels
Display aspect ratio: 2.35:1
Frame rate: 23.976 fps
Color space: YUV
Chroma subsampling: 4:2:0
Bit depth: 8 bits
Scan type: Progressive
Bits/(Pixel*Frame): 0.184
Stream size: 1.69 GiB (81%)
Title: RG Films Tfile
Writing library: x264 core 119 r2106 07efeb4
Encoding settings: cabac=1 / ref=8 / deblock=1:-1:-1 / analyse=0x3:0x111 / me=umh / subme=0 / psy=1 / psy_rd=1.00:0.10 / mixed_ref=1 / me_range=16 / chroma_me=1 / trellis=2 / 8x8dct=1 / cqm=0 / deadzone=21,11 / fast_pskip=0 / chroma_qp_offset=-1 / threads=6 / sliced_threads=0 / nr=0 / decimate=1 / interlaced=0 / bluray_compat=0 / constrained_intra=0 / bframes=8 / b_pyramid=2 / b_adapt=2 / b_bias=0 / direct=1 / weightb=1 / open_gop=0 / weightp=2 / keyint=250 / keyint_min=23 / scenecut=40 / intra_refresh=0 / rc_lookahead=40 / rc=abr / mbtree=1 / bitrate=1948 / ratetol=1.0 / qcomp=0.60 / qpmin=0 / qpmax=69 / qpstep=4 / ip_ratio=1.40 / aq=1:1.00
Language: English
Default: Yes
Forced: No

Audio
ID: 2
Format: AC-3
Format/Info: Audio Coding 3
Mode extension: CM (complete main)
Codec ID: A_AC3
Duration: 2h 8mn
Bit rate mode: Constant
Bit rate: 384 Kbps
Channel(s): 6 channels
Channel positions: Front: L C R, Side: L R, LFE
Sampling rate: 48.0 KHz
Bit depth: 16 bits
Compression mode: Lossy
Stream size: 354 MiB (17%)
Title: Дубляж
Language: Russian
Default: Yes
Forced: No








Поделиться:




реклама партнёра


Вернуться к началу
 Профиль Отправить личное сообщение  
 
   Похожие торренты   Автор   Торрент   Размер 
В этой теме нет новых непрочитанных сообщений. Крепкий орешек 3: Возмездие / Die Hard: With a Vengeance [Боевик, триллер, драма, криминал, 1995] BDRip 1080p, Mvo+Sub

salma3

67 | 4

7.75 ГБ

В этой теме нет новых непрочитанных сообщений. Крепкий орешек: Хороший день, чтобы умереть / A Good Day to Die Hard (Джон Мур / John Moore) [2013, США, боевик, триллер, криминал, HQRip-AVC] [Расширенная версия / Extended Сut] Dub

PriZraK

53 | 1

1.43 ГБ

В этой теме нет новых непрочитанных сообщений. Геракл: Начало легенды / The Legend of Hercules (Ренни Харлин) [2014, боевик, фэнтези, HDRip | Чистый звук] Dub

PriZraK

2952 | 125

1.45 ГБ

В этой теме нет новых непрочитанных сообщений. Адвокат для убийцы / Criminal Law [Триллер, криминал, 1988] BDRip-AVC, 2Mvo+Dvo+Sub

salma3

21 | 11

2.19 ГБ

В этой теме нет новых непрочитанных сообщений. Адвокат для убийцы / Criminal Law [триллер, криминал. 1988] BDRip 720p, 2Mvo+Dvo+Sub

salma3

16 | 3

8.57 ГБ

В этой теме нет новых непрочитанных сообщений. Адвокат для убийцы / Criminal Law [Триллер, криминал, 1988] BDRip 1080p, 2Mvo+Dvo+Sub

salma3

5 | 5

8.96 ГБ

В этой теме нет новых непрочитанных сообщений. Дик Трэйси / Dick Tracy [боевик, триллер, мелодрама, 1990] BDRip 720p, Dub+2Mvo+Avo+Sub

salma3

32 | 4

6.26 ГБ


Начать новую тему Ответить на тему  [ 1 сообщение ] 




Для Мосгорсуда, Роскомнадзора и рекламодателей:: mosgorsud-torrent[собачка]yandex.ru