Торрент файл
скачать торрент магнет ссылка Добавлен: 10 янв 2012, 18:52
Размер: 4.37 ГБ
Сидеров: 8
Личеров: 6
Автор

СообщениеДобавлено: 10 янв 2012, 18:52 

Не в сети
Супермодератор
Аватара пользователя
Дата регистрации:
11 апр 2010, 18:10
Спасибо: 5960 / 7
Сообщения: 56765
[b]Жестокие игры / Cruel Intentions[/b]

Перевод: Профессиональный (многоголосый, закадровый), cубтитры: английские [отключаемые]

Формат: HDRip-AVC, MKV, H.264, OOG Vorbis

Страна: США

Режиссер: Роджер Камбл

Жанр: триллер, драма, мелодрама

Продолжительность: 01:37:32

Год выпуска: 1999

В ролях: Сара Мишель Геллар, Райан Филипп, Риз Уизерспун, Сэльма Блэр, Луиз Флетчер, Джошуа Джексон, Эрик Мэбиус, Шон Патрик Томас, Свузи Кертц, Кристин Барански

Описание: Себастьян знает сладкий привкус легких побед. В его руках — чужие тайны и ключи от неприступных спален. Катрин устала от простых интриг и банальных признаний. Тогда современный Казанова и скучающая красавица придумывают себе новое развлечение. В их жестокой игре не хватает только жертвы…

______________

Видео: 1024 x 560 (16:9), 23.976 fps, AVC, х264, High@L5.1, ~ 1 942 kbps avg, 0.167 bit/pixel

Аудио #1:Русский: 48.0 kHz, OOG Vorbis, 2 ch, ~112.00 kbps avg [Профессиональный (многоголосый, закадровый)]
Аудио #2:Английский: 48.0 kHz, OOG Vorbis, 2 ch, ~112.00 kbps avg [Оригинал]

General
Unique ID: 217281287924735478116894431649541539400 (0xA376DA97ADA577DAB4899FF491DA464
Complete name: E:\tfile\Cruel_Intentions_Trilogia_Benjamin_Linus_[tfile.ru]\Cruel_Intentions_1_HDRip-AVC_[tfile.ru].mkv
Format: Matroska
File size: 1.46 GiB
Duration: 1h 37mn
Overall bit rate: 2 136 Kbps
Encoded date: UTC 2008-05-17 13:45:25
Writing application: mkvmerge v2.2.0 ('Turn It On Again') built on Mar4 2008 12:58:26
Writing library: libebml v0.7.7 + libmatroska v0.8.1

Video
ID: 1
Format: AVC
Format/Info: Advanced Video Codec
Format profile: High@L5.1
Format settings, CABAC: Yes
Format settings, ReFrames: 5 frames
Codec ID: V_MPEG4/ISO/AVC
Duration: 1h 37mn
Bit rate: 1 942 Kbps
Width: 1 024 pixels
Height: 560 pixels
Display aspect ratio: 16:9
Frame rate: 23.976 fps
Color space: YUV
Chroma subsampling: 4:2:0
Bit depth: 8 bits
Scan type: Progressive
Bits/(Pixel*Frame): 0.141
Stream size: 1.27 GiB (88%)
Writing library: x264 core 59 r839M 27c3071
Encoding settings: cabac=1 / ref=5 / deblock=1:1:1 / analyse=0x3:0x113 / me=umh / subme=6 / me-prepass=0 / brdo=1 / mixed_ref=1 / me_range=32 / chroma_me=1 / trellis=2 / 8x8dct=1 / cqm=0 / deadzone=21,11 / chroma_qp_offset=0 / threads=3 / nr=0 / decimate=0 / mbaff=0 / fgo=0 / bframes=3 / b_pyramid=1 / b_adapt=1 / b_bias=0 / direct=3 / wpredb=1 / bime=1 / keyint=250 / keyint_min=25 / scenecut=40(pre) / rc=2pass / bitrate=1942 / ratetol=4.0 / rceq='blurCplx^(1-qComp)' / qcomp=1.00 / qpmin=10 / qpmax=51 / qpstep=4 / cplxblur=20.0 / qblur=0.5 / ip_ratio=1.40 / pb_ratio=1.30 / aq=2:1.00
Language: English

Audio #1
ID: 2
Format: Vorbis
Format settings, Floor: 1
Codec ID: A_VORBIS
Duration: 1h 37mn
Bit rate mode: Constant
Bit rate: 112 Kbps
Channel(s): 2 channels
Sampling rate: 48.0 KHz
Compression mode: Lossy
Stream size: 78.1 MiB (5%)
Title: Russian [Vorbis 2ch q3.0]
Writing library: Lancer b5(UTC 2006-11-10)
Language: Russian

Audio #2
ID: 3
Format: Vorbis
Format settings, Floor: 1
Codec ID: A_VORBIS
Duration: 1h 37mn
Bit rate mode: Constant
Bit rate: 112 Kbps
Channel(s): 2 channels
Sampling rate: 48.0 KHz
Compression mode: Lossy
Stream size: 78.1 MiB (5%)
Title: English [Vorbis 2ch q3.0]
Writing library: Lancer b5(UTC 2006-11-10)
Language: English

Text
ID: 4
Format: UTF-8
Codec ID: S_TEXT/UTF8
Codec ID/Info: UTF-8 Plain Text
Title: English subtitles [srt]
Language: English











[b]Жестокие игры 2 / Cruel Intentions 2[/b]

Перевод: Профессиональный (многоголосый, закадровый), cубтитры: отсутствуют

Формат: DVDRip-AVC, MKV, H.264, AC3

Страна: США

Режиссер: Роджер Камбл

Жанр: триллер, драма, мелодрама

Продолжительность:01:23:28

Год выпуска: 2000

В ролях:Робин Данн, Сара Томпсон, Кери Линн Прэтт, Эми Адамс, Бэрри Флэтмэн, Мими Роджерс, Тереза Хилл, Барклай Хоуп, Тэйн МакКлюр, Дэвид Макилрайт

Описание: Себастьен Вальмон, сделавший все для того, чтобы его выгнали из школы, переезжает в Нью-Йорк к своему отцу, женившемуся в четвертый раз. Он хочет начать новую жизнь приличного человека. У новой мачехи есть дочь Кэтрин, прилагающая все усилия для того, чтобы стать похожей на стерву-мать. Кэтрин сразу невзлюбила сводного братика, превосходящего ее во всем.

Себастьен влюбляется в Даниель, дочь директора его новой школы. Она отличается от других девушек серьезностью и целеустремленностью, учится и подрабатывает в книжном магазине. Кэтрин намерена превратить Шери, девственницу-идиотку из безумно богатой семьи, в последнюю шлюху. Школа, в которой учатся Себастьен и Кэтрин — для детей богатых родителей. И Кэтрин возглавляет это сборище снобов. Но ей не очень-то и нравится выбранная стезя — стать такой же как мать. Чем разрешится конфликт Себастьена с Кэтрин? И что будет дальше между ним и Даниель?


______________

Видео: 720 x 576@1024x576 (16:9), 25.000 fps, AVC (х264) Main@L5.1 , ~ 1 728 kbps avg, 0.167 bit/pixel

Аудио #1: Русский: 48 kHz, AC3 Dolby Digital, 3/2 (L,C,R,l,r) + LFE ch, ~384 kbps avg [Профессиональный (многоголосый, закадровый)]
Аудио #2: Английский: 48 kHz, AC3 Dolby Digital, 3/2 (L,C,R,l,r) + LFE ch, ~384 kbps avg [Оригинал]

General
Unique ID: 178608403260628196932644706496930228513 (0x865EBA2AD1F49E0EA464F41DD479A921)
Complete name: E:\tfile\Cruel_Intentions_Trilogia_Benjamin_Linus_[tfile.ru]\Cruel_Intentions_2_DVDRip-AVC_[tfile.ru].mkv
Format: Matroska
File size: 1.46 GiB
Duration: 1h 23mn
Overall bit rate: 2 500 Kbps
Encoded date: UTC 2009-09-08 18:02:01
Writing application: mkvmerge v2.1.0 ('Another Place To Fall') built on Aug 19 2007 13:40:07
Writing library: libebml v0.7.7 + libmatroska v0.8.1

Video
ID: 1
Format: AVC
Format/Info: Advanced Video Codec
Format profile: Main@L5.1
Format settings, CABAC: Yes
Format settings, ReFrames: 4 frames
Codec ID: V_MPEG4/ISO/AVC
Duration: 1h 23mn
Bit rate: 1 728 Kbps
Width: 720 pixels
Height: 576 pixels
Display aspect ratio: 16:9
Original display aspect ratio: 5:4
Frame rate: 25.000 fps
Standard: PAL
Color space: YUV
Chroma subsampling: 4:2:0
Bit depth: 8 bits
Scan type: Progressive
Bits/(Pixel*Frame): 0.167
Stream size: 1 004 MiB (67%)
Writing library: x264 core 56 svn-667M
Encoding settings: cabac=1 / ref=3 / deblock=1:0:0 / analyse=0x1:0x131 / me=umh / subme=7 / brdo=1 / mixed_ref=1 / me_range=16 / chroma_me=1 / trellis=1 / 8x8dct=0 / cqm=0 / deadzone=21,11 / chroma_qp_offset=0 / threads=2 / nr=0 / decimate=1 / mbaff=0 / bframes=3 / b_pyramid=0 / b_adapt=1 / b_bias=0 / direct=3 / wpredb=1 / bime=1 / keyint=250 / keyint_min=25 / scenecut=40(pre) / rc=2pass / bitrate=1728 / ratetol=1.0 / rceq='blurCplx^(1-qComp)' / qcomp=0.60 / qpmin=10 / qpmax=51 / qpstep=4 / cplxblur=20.0 / qblur=0.5 / ip_ratio=1.40 / pb_ratio=1.30

Audio #1
ID: 2
Format: AC-3
Format/Info: Audio Coding 3
Mode extension: CM (complete main)
Codec ID: A_AC3
Duration: 1h 23mn
Bit rate mode: Constant
Bit rate: 384 Kbps
Channel(s): 6 channels
Channel positions: Front: L C R, Side: L R, LFE
Sampling rate: 48.0 KHz
Bit depth: 16 bits
Compression mode: Lossy
Stream size: 229 MiB (15%)
Title: AC3 5.1 / 384 kbps
Language: Russian

Audio #2
ID: 3
Format: AC-3
Format/Info: Audio Coding 3
Mode extension: CM (complete main)
Codec ID: A_AC3
Duration: 1h 23mn
Bit rate mode: Constant
Bit rate: 384 Kbps
Channel(s): 6 channels
Channel positions: Front: L C R, Side: L R, LFE
Sampling rate: 48.0 KHz
Bit depth: 16 bits
Compression mode: Lossy
Stream size: 229 MiB (15%)
Title: AC3 5.1 / 384 kbps
Language: English

















[b]Жестокие игры 3 / Cruel Intentions 3[/b]

Перевод: Профессиональный (многоголосый, закадровый), cубтитры: английские [отключаемые]

Формат: DVDRip-AVC, MKV, H.264, AC3

Страна: США

Режиссер: Скотт Зил

Жанр: триллер, драма

Продолжительность:01:21:39

Год выпуска: 2004

В ролях:Керр Смит, Кристина Анапау, Натан Уэварингтон, Мелисса Ивонн Льюис, Натали Рэмси, Томас Скотт Паркер, Тара Кэрролл, Чарли Вебер, Алекс Доннелли.

Описание: Их любовным интригам нет конца… Их коварный план соблазнить и бросить двух доверчивых студенток не увенчался особым успехом, и тогда Джейсон и Патрик — два самых распущенных студента Колледжа Престридж — обратили свой взгляд на «приз», более интригующий и заманчивый — Касси Мертей, женщину холодную и расчетливую, которая приоткрывает им новый мир наслаждения и боли.

______________

Видео: 720 x 576@1024x576 (16:9), 25.000 fps, AVC (х264) Main@L5.1 , ~ 1 776kbps avg, 0.171 bit/pixel

Аудио #1: Русский: 48 kHz, AC3 Dolby Digital, 3/2 (L,C,R,l,r) + LFE ch, ~384 kbps avg [Профессиональный (многоголосый, закадровый)]
Аудио #2: Английский: 48 kHz, AC3 Dolby Digital, 3/2 (L,C,R,l,r) + LFE ch, ~384 kbps avg [Оригинал]

General
Unique ID: 204160811008126703048001665816242724991 (0x9997F122EBA1296C8AD29A100B88A07F)
Complete name: E:\tfile\Cruel_Intentions_Trilogia_Benjamin_Linus_[tfile.ru]\Cruel_Intentions_3_DVDRip-AVC_[tfile.ru].mkv
Format: Matroska
File size: 1.45 GiB
Duration: 1h 21mn
Overall bit rate: 2 548 Kbps
Encoded date: UTC 2009-09-10 16:49:59
Writing application: mkvmerge v2.1.0 ('Another Place To Fall') built on Aug 19 2007 13:40:07
Writing library: libebml v0.7.7 + libmatroska v0.8.1

Video
ID: 1
Format: AVC
Format/Info: Advanced Video Codec
Format profile: Main@L5.1
Format settings, CABAC: Yes
Format settings, ReFrames: 4 frames
Codec ID: V_MPEG4/ISO/AVC
Duration: 1h 21mn
Bit rate: 1 776 Kbps
Width: 720 pixels
Height: 576 pixels
Display aspect ratio: 16:9
Original display aspect ratio: 5:4
Frame rate: 25.000 fps
Standard: PAL
Color space: YUV
Chroma subsampling: 4:2:0
Bit depth: 8 bits
Scan type: Progressive
Bits/(Pixel*Frame): 0.171
Stream size: 1 010 MiB (68%)
Writing library: x264 core 56 svn-667M
Encoding settings: cabac=1 / ref=3 / deblock=1:0:0 / analyse=0x1:0x131 / me=umh / subme=7 / brdo=1 / mixed_ref=1 / me_range=16 / chroma_me=1 / trellis=1 / 8x8dct=0 / cqm=0 / deadzone=21,11 / chroma_qp_offset=0 / threads=2 / nr=0 / decimate=1 / mbaff=0 / bframes=3 / b_pyramid=0 / b_adapt=1 / b_bias=0 / direct=3 / wpredb=1 / bime=1 / keyint=250 / keyint_min=25 / scenecut=40(pre) / rc=2pass / bitrate=1776 / ratetol=1.0 / rceq='blurCplx^(1-qComp)' / qcomp=0.60 / qpmin=10 / qpmax=51 / qpstep=4 / cplxblur=20.0 / qblur=0.5 / ip_ratio=1.40 / pb_ratio=1.30

Audio #1
ID: 2
Format: AC-3
Format/Info: Audio Coding 3
Mode extension: CM (complete main)
Codec ID: A_AC3
Duration: 1h 21mn
Bit rate mode: Constant
Bit rate: 384 Kbps
Channel(s): 6 channels
Channel positions: Front: L C R, Side: L R, LFE
Sampling rate: 48.0 KHz
Bit depth: 16 bits
Compression mode: Lossy
Stream size: 224 MiB (15%)
Title: AC3 5.1 / 384 kbps
Language: Russian

Audio #2
ID: 3
Format: AC-3
Format/Info: Audio Coding 3
Mode extension: CM (complete main)
Codec ID: A_AC3
Duration: 1h 21mn
Bit rate mode: Constant
Bit rate: 384 Kbps
Channel(s): 6 channels
Channel positions: Front: L C R, Side: L R, LFE
Sampling rate: 48.0 KHz
Bit depth: 16 bits
Compression mode: Lossy
Stream size: 224 MiB (15%)
Title: AC3 5.1 / 384 kbps
Language: English

Text
ID: 4
Format: UTF-8
Codec ID: S_TEXT/UTF8
Codec ID/Info: UTF-8 Plain Text
Language: English














Поделиться:




реклама партнёра


Вернуться к началу
 Профиль Отправить личное сообщение  
 
   Похожие торренты   Автор   Торрент   Размер 
В этой теме нет новых непрочитанных сообщений. Жестокие игры / Cruel Intentions [триллер, драма, мелодрама, 1999] BDRip, Mvo [Видеосервис]

salma3

60 | 10

1.46 ГБ

В этой теме нет новых непрочитанных сообщений. Жестокие мечты / Mean Dreams [триллер, 2016] HDRip, Mvo [iTunes]

salma3

50 | 2

1.46 ГБ

В этой теме нет новых непрочитанных сообщений. Жестокое Лето / Cruel Summer [Ужасы, триллер, драма, 2016] WEB-DLRip, Mvo

salma3

244 | 75

1.37 ГБ

В этой теме нет новых непрочитанных сообщений. Жестокие люди / Fierce People [драма, триллер, экранизация, 2005] WEB-DL 720p, Dub

salma3

39 | 15

4.08 ГБ

В этой теме нет новых непрочитанных сообщений. Правила игры (Холостяцкие игры) / Bachelor Games [ужасы, боевик, триллер, комедия, приключения, 2016] HDRip, Avo

salma3

199 | 9

1.28 ГБ

В этой теме нет новых непрочитанных сообщений. С первого взгляда / At First Sight [драма, мелодрама, 1999] HDRip, Dvo [НТВ+]

salma3

83 | 33

1.45 ГБ

В этой теме нет новых непрочитанных сообщений. С первого взгляда / At First Sight [Мелодрама, драма, 1999] HDRip, Dub

salma3

20 | 8

1.38 ГБ


Начать новую тему Ответить на тему  [ 1 сообщение ] 




Для Мосгорсуда, Роскомнадзора и рекламодателей:: mosgorsud-torrent[собачка]yandex.ru