Торрент файл
скачать торрент магнет ссылка Добавлен: 10 янв 2012, 16:46
Размер: 749.71 МБ
Сидеров: 80
Личеров: 6
Статус: (Dracon)
Автор

СообщениеДобавлено: 10 янв 2012, 16:46 

Не в сети
Зам. Админа
Аватара пользователя
Дата регистрации:
02 дек 2010, 12:39
Спасибо: 12461 / 214
Сообщения: 27968
Страна: Южная Корея
Жанр:криминальная драма
Год выпуска: 2011
Продолжительность: 02:01:58
Перевод: Любительский одноголосый закадровый (@PD)
Cубтитры: нет
Режиссер: Ли Хьюн-сен / Hyun-seung Lee
В ролях: Сон Канг-хо / Song Kang-ho, Шин Се-кьюн / Shin Se-kyung

Описание: Взгляд молодой девушки по имени Чо Се-бин, который словно эхом отозвался из недавнего прошлого, заставил Юна Ду-хона бывшего руководителя крупной промышленной компании, принадлежащей мафиозному альянсу, по-новому взглянуть на жизнь и то, чем все мы в ней дорожим.
Однако не всем его бывшим коллегам по преступной группировке такого рода перемены пришлись по вкусу и в попытке изменить к лучшему чужую жизнь Юн ставит на карту свою собственную...

Сэмпл

Качество видео: DVDRip
Формат видео: AVI
Видео: 640x272 (2.35:1), 23.976 fps, XviD MPEG-4 ~721 kbps avg, 0.17 bit/pixel
Аудио: 44.100 kHz, MPEG Layer 3, 2 ch, ~128.00 kbps avg

Format: AVI
Format/Info: Audio Video Interleave
File size: 750 MiB
Duration: 2h 1mn
Overall bit rate: 859 Kbps
Writing application: VirtualDubMod 1.5.10.1 (build 2366/release)
Writing library: VirtualDubMod build 2366/release

Video
ID: 0
Format: MPEG-4 Visual
Format profile: Advanced Simple@L5
Format settings, BVOP: Yes
Format settings, QPel: No
Format settings, GMC: No warppoints
Format settings, Matrix: Default (MPEG)
Muxing mode: Packed bitstream
Codec ID: XVID
Codec ID/Hint: XviD
Duration: 2h 1mn
Bit rate: 722 Kbps
Width: 640 pixels
Height: 272 pixels
Display aspect ratio: 2.35:1
Frame rate: 23.976 fps
Color space: YUV
Chroma subsampling: 4:2:0
Bit depth: 8 bits
Scan type: Progressive
Bits/(Pixel*Frame): 0.173
Stream size: 630 MiB (84%)
Writing library: XviD 1.2.1 (UTC 2008-12-04)

Audio
ID: 1
Format: MPEG Audio
Format version: Version 1
Format profile: Layer 3
Codec ID: 55
Codec ID/Hint: MP3
Duration: 2h 1mn
Bit rate mode: Constant
Bit rate: 128 Kbps
Channel(s): 2 channels
Sampling rate: 44.1 KHz
Stream size: 112 MiB (15%)
Alignment: Split accross interleaves
Interleave, duration: 42 ms (1.00 video frame)
Interleave, preload duration: 500 ms






Релиз: от




реклама партнёра


Вернуться к началу
 Профиль  
 
   Похожие торренты   Автор   Торрент   Размер 
В этой теме нет новых непрочитанных сообщений. Взгляд из прошлого [01-04 из 04] (Анатолий Артамонов) [детектив, 2015] SATRip

Dracon

33 | 3

2.41 ГБ

В этой теме нет новых непрочитанных сообщений. Тени прошлого / The Cutter [боевик, триллер, драма, 2005] DVDRip, Mvo

salma3

1 | 3

1.46 ГБ

В этой теме нет новых непрочитанных сообщений. Тени прошлого / The Cutter [боевик, триллер, драма, 2005] DVDRip-AVC, Mvo

salma3

19 | 4

1.46 ГБ

В этой теме нет новых непрочитанных сообщений. Взгляд Одиссея / To vlemma tou Odyssea (Тео Ангелопулос / Theo Angelopoulos) [1995г., Греция, драма, DVDRip] avo

Alfredovich

140 | 30

2.18 ГБ

В этой теме нет новых непрочитанных сообщений. Полицейский / Легавый / Un conde [Криминальная драма, триллер, 1970] DVDRip, Mvo

salma3

33 | 8

1.37 ГБ

В этой теме нет новых непрочитанных сообщений. Ложь прошлого / Past Lies [Драма, 2008] TVRip, Dvo

salma3

2 | 4

1.41 ГБ

В этой теме нет новых непрочитанных сообщений. Взгляд зимы / Cold Comes the Night [Триллер, драма, криминал, 2013] HDRip, Mvo

salma3

381 | 13

1.46 ГБ


Начать новую тему Ответить на тему  [ 1 сообщение ] 




Для Мосгорсуда, Роскомнадзора и рекламодателей:: mosgorsud-torrent[собачка]yandex.ru