Торрент файл
скачать торрент магнет ссылка Добавлен: 08 янв 2012, 18:14
Размер: 1.61 ГБ
Сидеров: 0
Личеров: 3
Автор

СообщениеДобавлено: 08 янв 2012, 18:14 

Не в сети
Супермодератор
Аватара пользователя
Дата регистрации:
22 май 2010, 11:03
Возраст: 32
Спасибо: 7690 / 13
Сообщения: 49871
VA - Hardbass 2009 (Live)


Формат: DVDRip, AVI, XviD, MP3
Песня: Hardbass 2009 (Live)
Жанр: Techno Hardstyle
Продолжительность: 01:44:17
Год выпуска: 2009
Видео: XVID 640x480 29.00fps 1999Kbps
Аудио: MPEG Audio Layer 3 44100Hz stereo 1411Kbps



Жесткий бас, легендарное Hardstyle концепция B2S состоялся
по 14 февраля 2009 года и было больше, чем когда-либо!
на стадионе в Gelredome Арнем, собрались тысячи любителей четыре DJ команды, которые объединили свои выдающиеся навыки и совершенный
выбор записи в умопомрачительных результатов.
Четыре группы, известной как зеленый, синий, желтый и красный, более чем
оправдала ожиданий;От 22:00 вечера до 07:00 утра он был одним большим и удивительным событием
с лучшими в Hardstyle музыки, лазерных & видео-шоу и фейерверк.
И не будем забывать, массовых, зрелищных и весьма впечатляющим
Светодиодная стена (который никогда раньше не видели)!


Format: AVI
Format/Info: Audio Video Interleave
File size: 1.61 GiB
Duration: 1h 44mn
Overall bit rate: 2 205 Kbps

Video
ID: 0
Format: MPEG-4 Visual
Format profile: Simple@L3
Format settings, BVOP: Yes
Format settings, QPel: No
Format settings, GMC: No warppoints
Format settings, Matrix: Default (H.263)
Codec ID: XVID
Codec ID/Hint: XviD
Duration: 1h 44mn
Bit rate: 2 000 Kbps
Width: 640 pixels
Height: 480 pixels
Display aspect ratio: 4:3
Frame rate: 29.000 fps
Resolution: 24 bits
Scan type: Progressive
Bits/(Pixel*Frame): 0.224
Stream size: 1.46 GiB (91%)

Audio
ID: 1
Format: MPEG Audio
Format version: Version 1
Format profile: Layer 3
Codec ID: 55
Codec ID/Hint: MP3
Duration: 1h 44mn
Bit rate mode: Constant
Bit rate: 192 Kbps
Channel(s): 2 channels
Sampling rate: 44.1 KHz
Resolution: 16 bits
Stream size: 143 MiB (9%)
Alignment: Aligned on interleaves
Interleave, duration: 26 ms (0.76 video frame)
Writing library: LAME3.97

Поделиться:




реклама партнёра


Вернуться к началу
 Профиль Отправить личное сообщение  
 
   Похожие торренты   Автор   Торрент   Размер 
В этой теме нет новых непрочитанных сообщений. [Brazzers.com] Brazzers Live Pack (46) [2009-2014] [Anal, DP, DAP, Orgy, Big Tits, MILF, Sex Toys, Squirt] [WEB-DL 360p]

salma3

17 | 6

23.05 ГБ

В этой теме нет новых непрочитанных сообщений. VA - Minimal Techno, Vol. 13 [Minimal, Techno, 2014] MP3, 320kbps

Dracon

46 | 9

223.69 МБ

В этой теме нет новых непрочитанных сообщений. C. C. Catch - Live at Copernicus Center [Pop, disco, live, 2015] WEB-DLRip-AVC

salma3

32 | 1

843.74 МБ

В этой теме нет новых непрочитанных сообщений. [WildOnCam.com / CherryPimps.com] Megan Rain (Pigtails and Pussy LIVE / 25.07.2017) [2017 г., All Sex, Blowjob, Hardcore, Live Show, HDRip, 720p]

salma3

6 | 2

2.16 ГБ

В этой теме нет новых непрочитанных сообщений. [WildOnCam.com / CherryPimps.com] Megan Rain (Pigtails and Pussy LIVE / 25.07.2017) [2017 г., All Sex, Blowjob, Hardcore, Live Show, SiteRip, 480p]

salma3

13 | 4

1.3 ГБ

В этой теме нет новых непрочитанных сообщений. [WildOnCam.com / CherryPimps.com] Natasha Starr (Filling Up Every Hole LIVE / 09.03.2017) [2017 г., Hardcore, Anal, Blowjob, Live Show, HDRip, 720p]

salma3

11 | 3

1.72 ГБ

В этой теме нет новых непрочитанных сообщений. [WildOnCam.com / CherryPimps.com] Kat Dior, Missy Martinez (Up To No Good LIVE / 03.01.2017) [2017 г., Lesbian, Anal, Live Show, Toys, HDRip, 720p]

salma3

5 | 1

1.68 ГБ


Начать новую тему Ответить на тему  [ 1 сообщение ] 




Для Мосгорсуда, Роскомнадзора и рекламодателей:: mosgorsud-torrent[собачка]yandex.ru